<?xml version="1.0" standalone="no"?>
<!DOCTYPE svg PUBLIC "-//W3C//DTD SVG 1.1//EN" "http://www.w3.org/Graphics/SVG/1.1/DTD/svg11.dtd" >
<svg xmlns="http://www.w3.org/2000/svg">
<metadata>Generated by IcoMoon</metadata>
<defs>
<font id="icomoon" horiz-adv-x="1024">
<font-face units-per-em="1024" ascent="896" descent="-128" />
<missing-glyph horiz-adv-x="1024" />
<glyph unicode="&#x20;" d="" />
<glyph unicode="&#xe049;" glyph-name="unity" horiz-adv-x="1152" d="M996.22 483.2l-60-99.199 60-99.26-105.602-383.24-394.158 102.721-58.48 100-118.34-0.861-288.56 280.64 288.52 280.58 118.4-0.859 58.4 100.119 394.218 102.721zM447.54 647.6l-217.798-216.26h346.26l173.1 291.64zM447.54 120.34l301.56-75.379-173.1 291.62h-346.26zM833.54 92.34l83.58 291.66-83.619 291.68-173.16-291.68z" />
<glyph unicode="&#xe057;" glyph-name="shopify" d="M776.64 687.8c0.799-4.801 108.879-735.8 108.879-735.8l-251.378-62.4v865.46c16.020-16.021 59.24-57.66 59.24-57.66s70.459-1.6 74.459-1.6c4.5-0.207 8.178-3.621 8.801-8zM577.3 755.060c18.42 5.6 26.721 8.379 29.619 8.799 2.9 0.42 5.813 0.688 8.801 0.801v-876.66l-605.16 104.961s73.6 563.638 76 583.638c3.18 26.4 4 27.201 32 36 0.799 0.801 39.219 12.82 94.459 29.621 5.641 42.439 26.42 96.879 53.641 140.119 38.5 61.66 86.5 96.061 134.5 97.66 24.84 0.74 45.641-7.26 61.641-24.801 0.799-1.6 2.398-2.398 3.199-4 2.238 0.535 4.541 0.818 6.941 0.818 0.354 0 0.707-0.006 1.059-0.018 36.84 0 68-21.699 88.881-61.721 5.682-11.178 10.576-23.096 14.42-35.219zM466.82 720.62c0.799 26.42-2.4 65.66-16.020 94.4-13.602-6.4-25.621-16.82-34.42-25.619-22.42-24.74-41.641-62.361-51.24-100 34.42 10.42 69.68 21.619 101.68 31.219zM401.16 847.12c-73.66-1.6-138.5-117.68-156.020-194.459 26.34 8 55.16 16.801 84 25.619 9.6 48.9 32.82 100.061 63.24 132.9 12 12 24.818 22.42 37.619 28.82-7.988 4.527-17.25 7.148-27.080 7.148-0.588 0-1.176-0.010-1.76-0.029zM308.3 406.78c-0.801 9.621 0 47.221 59.238 51.24 40.842 3.201 75.262-12.799 75.262-12.799l30.42 115.199s-26.461 12.82-78.461 9.619c-134.5-8.818-195.34-102.479-188.939-195.359 7.199-110.48 117.68-106.48 121.68-173.719 0.82-16.021-9.619-39.24-37.619-40.842-43.24-3.199-96.881 37.641-96.881 37.641l-20.801-88s53.641-57.641 151.301-51.24c80.859 4.82 136.9 69.66 131.301 164.941-8 120.879-143.301 132.1-146.5 183.318zM498.84 730.24c17.613 5.6 33.627 10.4 48.041 14.4-8.021 24.859-25.621 65.66-62.461 72.859 11.221-28.82 14.42-63.26 14.42-87.26z" />
<glyph unicode="&#xe070;" glyph-name="store-alt-slash" horiz-adv-x="1280" d="M35.779 648.76l176.941-136.76h-148.521c-51.18 0-81.58 57-53.18 99.6zM1152 69.16l115.66-89.359c7.531-5.857 12.342-15.016 12.342-25.285 0-7.389-2.51-14.197-6.723-19.615l-39.279-50.52c-5.855-7.551-15.025-12.375-25.311-12.375-7.395 0-14.207 2.514-19.629 6.734l-1176.702 909.44c-7.531 5.857-12.342 15.016-12.342 25.285 0 7.389 2.51 14.195 6.723 19.615l39.26 50.539c5.857 7.537 15.018 12.354 25.293 12.354 7.395 0 14.205-2.514 19.627-6.732l69.381-53.641 21.318 32c11.428 17.154 30.904 28.4 53.043 28.4h810.538c0.008 0-0.021 0.064-0.014 0.064 22.234 0 41.85-11.299 53.414-28.465l170.58-256c28.221-42.6-2.18-99.6-53.18-99.6h-636.96l82.801-64h106.16v-82l256-198v280h128v-378.84zM640 128v53.76l128-98.939v-146.82c0-35.322-28.678-64-64-64h-512c-35.322 0-64 28.678-64 64v512h128v-320h384z" />
<glyph unicode="&#xe071;" glyph-name="store-slash" horiz-adv-x="1280" d="M243.020 128h453.82l314.66-256h-829.040c-33.621 0-60.801 28.6-60.801 64v393.6c10.041-3.070 20.588-5.521 31.16-7.199 11.258-1.582 22.51-2.395 34.199-2.4 19.314 0.314 38.057 2.951 56 7.6v-199.6zM187.020 384.18c-0.129 0-0.113-0.008-0.242-0.008-8.748 0-17.359 0.59-25.797 1.729-117.881 16.939-174.020 163.219-112.98 270l267.020-217.24c-33.42-33.041-77.799-54.48-128-54.48zM1204.26-20.18c7.197-6.086 11.734-15.199 11.734-25.352 0-7.316-2.375-14.082-6.395-19.568l-37.32-50.52c-5.324-7.498-14.082-12.357-23.971-12.357-7.096 0-13.609 2.521-18.689 6.717l-1117.878 909.44c-7.197 6.086-11.734 15.199-11.734 25.352 0 7.316 2.375 14.082 6.395 19.568l37.32 50.52c5.32 7.496 14.074 12.354 23.957 12.354 7.104 0 13.621-2.527 18.703-6.732l67.379-54.801 18.779 31.561c10.326 17.799 29.477 29.77 51.461 30h767.62c21.996-0.219 41.156-12.193 51.48-30l123.32-207.2c63.881-107.201 7.199-255.98-112.119-272.8-8.561-1.197-17.115-1.813-26-1.82-56.061 0-105.84 26-140.221 66.221-34.221-40.221-84-66.221-140.221-66.221-17.67 0.262-34.771 3.172-50.82 8.281l275.64-224.22v159.359c17.916-4.73 36.658-7.375 56-7.6 11.816 0.014 23.191 0.824 34.58 2.4 10.623 1.516 21.168 3.975 31.141 7.199v-260.42z" />
<glyph unicode="&#xe07a;" glyph-name="rust" d="M1017.040 396.5c4.188-2.592 6.881-7.209 6.881-12.49 0-5.283-2.793-9.918-6.98-12.51l-43.639-27.020c-0.34-3.92-0.682-7.84-1.102-11.74l37.441-35c2.869-2.684 4.664-6.496 4.664-10.73 0-6.301-3.971-11.68-9.545-13.77l-48-18c-1.080-3.779-2.16-7.561-3.34-11.301l30-41.66c1.73-2.41 2.744-5.379 2.744-8.57 0-7.305-5.34-13.371-12.324-14.51l-50.84-8.299c-1.801-3.439-3.58-6.9-5.461-10.301l21.361-46.84c0.842-1.852 1.311-3.938 1.311-6.104 0-3.016-0.91-5.822-2.471-8.156-2.584-3.943-7.023-6.535-12.086-6.535-0.219 0-0.438 0.006-0.654 0.016l-51.641 1.82c-2.373-2.975-4.779-5.908-7.219-8.801l11.859-50.32c0.252-1.076 0.393-2.191 0.393-3.344 0-8.125-6.596-14.721-14.719-14.721-1.154 0-2.277 0.133-3.354 0.385l-50.301 11.859c-2.906-2.426-5.84-4.832-8.799-7.219l1.818-51.641c0.008-0.176-0.002-0.336-0.002-0.514 0-8.113-6.588-14.699-14.699-14.699-2.168 0-4.225 0.471-6.078 1.313l-46.84 21.361c-3.4-1.881-6.859-3.66-10.301-5.461l-8.299-50.84c-1.131-6.982-7.205-12.326-14.506-12.326-3.199 0-6.162 1.025-8.574 2.766l-41.641 30c-3.74-1.199-7.52-2.26-11.299-3.359l-18-48c-2.102-5.566-7.475-9.525-13.771-9.525-4.229 0-8.043 1.785-10.729 4.645l-35 37.461c-3.9-0.439-7.762-0.781-11.762-1.121l-27.020-43.639c-2.592-4.188-7.207-6.98-12.49-6.98s-9.918 2.793-12.51 6.98l-27.020 43.639c-3.92 0.34-7.859 0.682-11.76 1.102l-35-37.441c-2.686-2.859-6.494-4.648-10.723-4.648-6.297 0-11.676 3.963-13.777 9.529l-18 48c-3.779 1.1-7.58 2.16-11.301 3.359l-41.66-30c-2.412-1.74-5.389-2.76-8.588-2.76-7.299 0-13.361 5.338-14.492 12.32l-8.299 50.84c-3.439 1.801-6.9 3.58-10.281 5.461l-46.859-21.361c-1.852-0.842-3.922-1.328-6.090-1.328-8.113 0-14.699 6.586-14.699 14.699 0 0.178 0.004 0.354 0.010 0.529l1.84 51.641c-2.975 2.373-5.914 4.779-8.82 7.219l-50.32-11.859c-1.076-0.252-2.191-0.393-3.344-0.393-8.125 0-14.721 6.596-14.721 14.719 0 1.154 0.133 2.277 0.385 3.354l11.859 50.32c-2.439 2.906-4.84 5.84-7.199 8.801l-51.66-1.82c-0.252-0.014-0.486-0.035-0.742-0.035-5.033 0-9.459 2.613-11.998 6.555-1.553 2.33-2.461 5.156-2.461 8.166 0 2.174 0.473 4.236 1.32 6.094l21.262 46.859c-1.881 3.381-3.66 6.842-5.461 10.281l-50.84 8.299c-6.984 1.139-12.33 7.219-12.33 14.523 0 3.191 1.020 6.146 2.75 8.557l30 41.66c-1.199 3.74-2.26 7.521-3.359 11.301l-48 18c-5.574 2.090-9.543 7.463-9.543 13.764 0 4.234 1.793 8.053 4.662 10.736l37.439 35c-0.42 3.9-0.76 7.74-1.1 11.74l-43.639 27.020c-4.189 2.592-6.98 7.209-6.98 12.49 0 5.283 2.791 9.918 6.98 12.51l43.719 27c0.34 3.939 0.68 7.859 1.1 11.76l-37.439 35c-2.869 2.684-4.664 6.496-4.664 10.73 0 6.301 3.971 11.68 9.545 13.77l48 18c1.1 3.779 2.18 7.58 3.359 11.32l-30 41.641c-1.73 2.41-2.744 5.379-2.744 8.57 0 7.305 5.34 13.371 12.324 14.51l50.82 8.279c1.799 3.459 3.58 6.92 5.459 10.32l-21.32 46.82c-0.848 1.855-1.318 3.947-1.318 6.121 0 3.008 0.906 5.807 2.459 8.139 2.668 3.945 7.168 6.527 12.285 6.527 0.152 0 0.305-0.004 0.455-0.008l51.619-1.82c2.381 2.961 4.781 5.92 7.24 8.82l-11.859 50.32c-0.252 1.076-0.393 2.191-0.393 3.344 0 8.125 6.596 14.721 14.719 14.721 1.154 0 2.277-0.133 3.354-0.385l50.301-11.939c2.84 2.439 5.859 4.84 8.84 7.219l-1.84 51.621c-0.010 0.209-0.002 0.402-0.002 0.615 0 8.111 6.588 14.699 14.701 14.699 2.168 0 4.227-0.471 6.080-1.314l46.801-21.26c3.42 1.879 6.859 3.66 10.32 5.459l8.299 50.82c1.139 6.984 7.219 12.33 14.523 12.33 3.191 0 6.146-1.020 8.557-2.75l41.641-30c3.74 1.199 7.539 2.26 11.32 3.359l18 48c2.090 5.574 7.463 9.543 13.764 9.543 4.234 0 8.053-1.793 10.736-4.662l35-37.439c3.898 0.42 7.76 0.76 11.76 1.1l27.020 43.639c2.592 4.189 7.209 6.98 12.49 6.98 5.283 0 9.918-2.791 12.51-6.98l26.961-43.68c3.939-0.34 7.859-0.68 11.76-1.1l35 37.439c2.684 2.869 6.496 4.666 10.73 4.666 6.299 0 11.68-3.971 13.77-9.545l18-48c3.779-1.080 7.559-2.16 11.279-3.34l41.721 29.939c2.41 1.73 5.379 2.744 8.57 2.744 7.305 0 13.371-5.34 14.51-12.324l8.299-50.84c3.439-1.779 6.9-3.58 10.301-5.461l46.84 21.461c1.854 0.844 3.926 1.332 6.094 1.332 8.113 0 14.699-6.588 14.699-14.701 0-0.211-0.004-0.422-0.014-0.631l-1.82-51.641c2.975-2.373 5.908-4.779 8.801-7.219l50.32 11.859c1.076 0.252 2.191 0.393 3.344 0.393 8.125 0 14.721-6.596 14.721-14.719 0-1.154-0.133-2.277-0.385-3.354l-11.76-50.32c2.428-2.906 4.834-5.84 7.221-8.801l51.639 1.82c0.176 0.006 0.336-0.002 0.514-0.002 8.113 0 14.699-6.588 14.699-14.701 0-2.166-0.469-4.225-1.313-6.076l-21.359-46.84c1.879-3.4 3.66-6.84 5.459-10.301l50.84-8.299c6.984-1.139 12.33-7.219 12.33-14.523 0-3.191-1.020-6.146-2.75-8.557l-30-41.66c1.18-3.721 2.26-7.521 3.34-11.281l48-18c5.574-2.090 9.543-7.463 9.543-13.764 0-4.234-1.793-8.053-4.662-10.736l-37.439-35c0.42-3.898 0.76-7.76 1.1-11.76zM715.040 138.34l64.281-13.76c12.563 12.625 24.006 25.879 34.68 40.18h-158.1c-25 0-48.42 35.279-54.201 52.92-5.779 15.721-14.299 64.9-18.119 80-12.26 49.18-50.76 51.74-59.58 51.74h-96.961l-0.1-68.699h89.66c3.439 0 5.781-0.682 5.781-3.82v-108.381c0-3.24-2.342-3.82-5.781-3.82h-306.34c10.039-13.619 20.77-26.293 32.52-38.42l63.021 13.521c1.871 0.398 3.795 0.59 5.785 0.59 13.324 0 24.469-9.416 27.135-21.951l15.279-71.32c47.938-22.264 101.988-34.701 158.283-34.701 55.041 0 107.33 11.883 154.438 33.223l15.279 71.34c2.693 12.545 13.836 21.979 27.182 21.979 2.010 0 3.969-0.213 5.857-0.619zM766.58 69.359c0 0.012-0.115 0.021-0.115 0.033 0 16.52-13.178 29.984-29.584 30.447h-0.881c-16.775-0.055-30.381-13.691-30.381-30.48 0-16.822 13.658-30.479 30.48-30.479s30.48 13.656 30.48 30.479zM315.34 70.721c0 0.004-0.115 0.010-0.115 0.016 0 16.494-13.121 29.947-29.484 30.484h-0.9c-16.813-0.012-30.459-13.664-30.459-30.48 0-16.822 13.656-30.48 30.479-30.48 16.816 0 30.469 13.646 30.48 30.461zM139.141 427.7c-1.451-13.398-2.125-26.551-2.125-40.334 0-35.648 4.98-70.143 14.285-102.826h107.199v239.46h-53.119l13.539-30.439c1.531-3.441 2.416-7.26 2.416-11.266 0-11.328-6.799-21.080-16.535-25.395zM116.619 499.82c0.006-16.816 13.688-30.447 30.506-30.447 16.822 0 30.48 13.656 30.48 30.479 0 16.531-13.188 30.006-29.605 30.469h-0.92c-16.813-0.012-30.461-13.664-30.461-30.48v-0.020zM426.94 450.84h117.4c24.98 0 55.359 8.82 55.359 33.4 0 29.699-39.58 37.24-46.139 37.24h-126.521zM798 282.58c20.619 2.26 44 11.42 44.039 52.92v17.641c0 3.719 1.561 6.26 5.381 6.26h38.561c0.699 9.342 1.059 18.057 1.059 27.578 0 12.656-0.629 25.166-1.859 37.502l-69.18 30.66c-9.732 4.389-16.477 14.184-16.477 25.545 0 3.947 0.82 7.707 2.297 11.115l36 81.139c-53.609 94.025-146.793 162.266-256.74 182.861l-52.52-50c-4.971-4.781-11.73-7.73-19.164-7.73-7.883 0-15 3.309-20.037 8.609l-46.939 49.201c-82.58-15.607-155.887-58.166-209.78-118.381h397.798c9.98 0 47.021-4.461 80.541-26.461 23.82-15.779 58.799-47.92 58.799-98.959 0-47.24-39.199-82.619-76.92-106.52 30.361-24 49.58-37.82 61.141-102.801 2.74-11.939 24.4-22.439 44-20.18zM480 775.58c0-0.016-0.014-0.031-0.014-0.049 0-16.822 13.656-30.479 30.48-30.479 16.822 0 30.479 13.656 30.479 30.479 0 16.537-13.197 30.016-29.625 30.469h-0.9c-16.773-0.033-30.387-13.646-30.42-30.42zM873.68 468c0.148-0.002 0.283-0.004 0.432-0.004 16.824 0 30.484 13.66 30.484 30.484 0 16.674-13.418 30.24-30.035 30.48h-0.881c-16.822 0-30.48-13.658-30.48-30.48s13.658-30.48 30.48-30.48z" />
<glyph unicode="&#xe07b;" glyph-name="tiktok" d="M896 476.18h-1.025c-91.020 0-175.686 29.232-244.514 78.5v-357.44c-0.066-179.371-145.715-324.978-325.102-324.978-179.428 0-325.1 145.672-325.1 325.1s145.672 325.1 325.1 325.1c15.258 0 29.939-1.043 44.641-3.080v-179.781c-14.137 4.447-29.178 6.846-44.775 6.846-82.367 0-149.24-66.873-149.24-149.24 0-82.369 66.873-149.24 149.24-149.24 82.369 0 149.236 66.908 149.236 149.275v698.76h176c-0.006-0.676-0.010-1.354-0.010-2.031 0-14.52 1.277-28.488 3.729-42.309v0c12.572-67.154 52.396-124.723 107.82-160.439 38.357-25.363 84.318-40.135 133.701-40.135 0.018 0 0.281-0.146 0.299-0.146v-174.76z" />
<glyph unicode="&#xf000;" glyph-name="glass-martini" d="M1004.1 780.8l-428.1-428.080v-384.72h112c44.18 0 80-35.82 80-80 0-8.84-7.16-16-16-16h-480c-8.84 0-16 7.16-16 16 0 44.18 35.82 80 80 80h112v384.72l-428.1 428.080c-42.5 42.52-12.4 115.199 47.699 115.199h888.8c60.1 0 90.199-72.68 47.699-115.199z" />
<glyph unicode="&#xf001;" glyph-name="music" d="M940.76 892.98c6.072 1.914 12.539 2.959 19.24 2.959 35.303 0 63.967-28.645 64-63.939v-704c0-70.699-86-128-192-128s-192 57.32-192 128 86 128 192 128c22.072-0.121 43.432-2.85 64-7.859v369.218l-512-150v-467.36c0-70.68-86-128-192-128s-192 57.32-192 128 86 128 192 128c22.070-0.125 43.428-2.846 64-7.84v522.82c0.018 28.625 18.867 52.867 44.82 61.020z" />
<glyph unicode="&#xf002;" glyph-name="search" d="M1010 10.6c18.6-18.799 18.6-49.199-0.199-68l-56.602-56.6c-18.6-18.801-49-18.801-67.799 0l-199.4 199.4c-9 9-14 21.199-14 34v32.6c-70.6-55.199-159.4-88-256-88-229.8 0-416 186.199-416 416s186.199 416 416 416 416-186.199 416-416c0-96.6-32.801-185.4-88-256h32.6c12.801 0 25-5 34-14zM416 224c141.6 0 256 114.6 256 256 0 141.6-114.6 256-256 256-141.6 0-256-114.6-256-256 0-141.6 114.6-256 256-256z" />
<glyph unicode="&#xf004;" glyph-name="heart" d="M924.6 770.8c125.6-107.201 132.201-299.602 19.6-415.8l-387-399.6c-25-25.801-65.6-25.801-90.6 0l-387 399.6c-112.4 116.199-105.799 308.6 19.801 415.8 109.6 93.398 272.798 76.6 373.2-27.201l39.4-40.6 39.4 40.6c100.6 103.801 263.6 120.6 373.2 27.201z" />
<glyph unicode="&#xf005;" glyph-name="star" horiz-adv-x="1152" d="M518.6 860.4c23.6 47.799 91.4 47.199 114.801 0l130.6-264.8 292.2-42.6c52.4-7.6 73.4-72.199 35.4-109.199l-211.4-206 50-291c9-52.602-46.398-91.801-92.799-67.4l-261.4 137.4-261.4-137.4c-46.4-24.6-101.799 14.799-92.799 67.4l50 291-211.4 206c-38 37-17 101.6 35.4 109.199l292.2 42.6z" />
<glyph unicode="&#xf007;" glyph-name="user" horiz-adv-x="896" d="M448 384c-141.4 0-256 114.6-256 256s114.6 256 256 256 256-114.6 256-256-114.6-256-256-256zM627.2 320c148.4 0 268.8-120.4 268.8-268.8v-83.199c0-53-43-96-96-96h-704c-53 0-96 43-96 96v83.199c0 148.4 120.4 268.8 268.8 268.8h33.398c44.602-20.4 93.801-32 145.801-32s101.4 11.6 145.801 32h33.398z" />
<glyph unicode="&#xf008;" glyph-name="film" d="M976 768c26.6 0 48-21.4 48-48v-672c0-26.6-21.4-48-48-48h-16v40c0 13.199-10.801 24-24 24h-80c-13.199 0-24-10.801-24-24v-40h-640v40c0 13.199-10.801 24-24 24h-80c-13.199 0-24-10.801-24-24v-40h-16c-26.6 0-48 21.4-48 48v672c0 26.6 21.4 48 48 48h16v-40c0-13.199 10.801-24 24-24h80c13.199 0 24 10.801 24 24v40h640v-40c0-13.199 10.801-24 24-24h80c13.199 0 24 10.801 24 24v40h16zM192 152v80c0 13.199-10.801 24-24 24h-80c-13.199 0-24-10.801-24-24v-80c0-13.199 10.801-24 24-24h80c13.199 0 24 10.801 24 24zM192 344v80c0 13.199-10.801 24-24 24h-80c-13.199 0-24-10.801-24-24v-80c0-13.199 10.801-24 24-24h80c13.199 0 24 10.801 24 24zM192 536v80c0 13.199-10.801 24-24 24h-80c-13.199 0-24-10.801-24-24v-80c0-13.199 10.801-24 24-24h80c13.199 0 24 10.801 24 24zM736 120v192c0 13.199-10.801 24-24 24h-400c-13.199 0-24-10.801-24-24v-192c0-13.199 10.801-24 24-24h400c13.199 0 24 10.801 24 24zM736 456v192c0 13.199-10.801 24-24 24h-400c-13.199 0-24-10.801-24-24v-192c0-13.199 10.801-24 24-24h400c13.199 0 24 10.801 24 24zM960 152v80c0 13.199-10.801 24-24 24h-80c-13.199 0-24-10.801-24-24v-80c0-13.199 10.801-24 24-24h80c13.199 0 24 10.801 24 24zM960 344v80c0 13.199-10.801 24-24 24h-80c-13.199 0-24-10.801-24-24v-80c0-13.199 10.801-24 24-24h80c13.199 0 24 10.801 24 24zM960 536v80c0 13.199-10.801 24-24 24h-80c-13.199 0-24-10.801-24-24v-80c0-13.199 10.801-24 24-24h80c13.199 0 24 10.801 24 24z" />
<glyph unicode="&#xf009;" glyph-name="th-large" d="M592 832h384c26.51 0 48-21.49 48-48v-320c0-26.51-21.49-48-48-48h-384c-26.51 0-48 21.49-48 48v320c0 26.51 21.49 48 48 48zM432 832c26.51 0 48-21.49 48-48v-320c0-26.51-21.49-48-48-48h-384c-26.51 0-48 21.49-48 48v320c0 26.51 21.49 48 48 48h384zM0 304c0 26.51 21.49 48 48 48h384c26.51 0 48-21.49 48-48v-320c0-26.51-21.49-48-48-48h-384c-26.51 0-48 21.49-48 48v320zM592-64c-26.51 0-48 21.49-48 48v320c0 26.51 21.49 48 48 48h384c26.51 0 48-21.49 48-48v-320c0-26.51-21.49-48-48-48h-384z" />
<glyph unicode="&#xf00a;" glyph-name="th" d="M298.666 784v-160c0-26.51-21.49-48-48-48h-202.666c-26.51 0-48 21.49-48 48v160c0 26.51 21.49 48 48 48h202.666c26.51 0 48-21.49 48-48zM661.334 304c0-26.51-21.49-48-48.002-48h-202.666c-26.51 0-48 21.49-48 48v160c0 26.51 21.49 48 48 48h202.668c26.51 0 48-21.49 48-48v-160zM725.334 784c0 26.51 21.49 48 48 48h202.666c26.51 0 48-21.49 48-48v-160c0-26.51-21.49-48-48-48h-202.666c-26.51 0-48 21.49-48 48v160zM661.334 624c0-26.51-21.49-48-48.002-48h-202.666c-26.51 0-48 21.49-48 48v160c0 26.51 21.49 48 48 48h202.668c26.51 0 48-21.49 48-48v-160zM250.666 512c26.51 0 48-21.49 48-48v-160c0-26.51-21.49-48-48-48h-202.666c-26.51 0-48 21.49-48 48v160c0 26.51 21.49 48 48 48h202.666zM0 144c0 26.51 21.49 48 48 48h202.666c26.51 0 48-21.49 48-48v-160c0-26.51-21.49-48-48-48h-202.666c-26.51 0-48 21.49-48 48v160zM773.334 256c-26.51 0-48 21.49-48 48v160c0 26.51 21.49 48 48 48h202.666c26.51 0 48-21.49 48-48v-160c0-26.51-21.49-48-48-48h-202.666zM773.334-64c-26.51 0-48 21.49-48 48v160c0 26.51 21.49 48 48 48h202.666c26.51 0 48-21.49 48-48v-160c0-26.51-21.49-48-48-48h-202.666zM362.666 144c0 26.51 21.49 48 48 48h202.666c26.51 0 48-21.49 48-48v-160c0-26.51-21.49-48-48-48h-202.666c-26.51 0-48 21.49-48 48v160z" />
<glyph unicode="&#xf00b;" glyph-name="th-list" d="M298.666 464v-160c0-26.51-21.49-48-48-48h-202.666c-26.51 0-48 21.49-48 48v160c0 26.51 21.49 48 48 48h202.666c26.51 0 48-21.49 48-48zM0 144c0 26.51 21.49 48 48 48h202.666c26.51 0 48-21.49 48-48v-160c0-26.51-21.49-48-48-48h-202.666c-26.51 0-48 21.49-48 48v160zM250.666 832c26.51 0 48-21.49 48-48v-160c0-26.51-21.49-48-48-48h-202.666c-26.51 0-48 21.49-48 48v160c0 26.51 21.49 48 48 48h202.666zM410.666-64c-26.51 0-48 21.49-48 48v160c0 26.51 21.49 48 48 48h565.334c26.51 0 48-21.49 48-48v-160c0-26.51-21.49-48-48-48h-565.334zM362.666 784c0 26.51 21.49 48 48 48h565.334c26.51 0 48-21.49 48-48v-160c0-26.51-21.49-48-48-48h-565.334c-26.51 0-48 21.49-48 48v160zM410.666 256c-26.51 0-48 21.49-48 48v160c0 26.51 21.49 48 48 48h565.334c26.51 0 48-21.49 48-48v-160c0-26.51-21.49-48-48-48h-565.334z" />
<glyph unicode="&#xf00c;" glyph-name="check" d="M347.796 17.191l-332.8 332.8c-19.994 19.994-19.994 52.412 0 72.408l72.406 72.408c19.994 19.996 52.414 19.996 72.408 0l224.19-224.19 480.19 480.19c19.994 19.994 52.414 19.994 72.408 0l72.406-72.408c19.994-19.994 19.994-52.412 0-72.408l-588.8-588.802c-19.996-19.994-52.414-19.994-72.406 0.002z" />
<glyph unicode="&#xf00d;" glyph-name="times" horiz-adv-x="704" d="M485.44 384l200.14-200.14c24.561-24.58 24.561-64.398 0-88.959l-44.48-44.48c-24.561-24.561-64.4-24.561-88.959 0l-200.14 200.14-200.14-200.14c-24.559-24.561-64.398-24.561-88.959 0l-44.48 44.48c-24.561 24.58-24.561 64.4 0 88.959l200.14 200.14-200.14 200.14c-24.561 24.58-24.561 64.398 0 88.959l44.48 44.48c24.58 24.561 64.4 24.561 88.959 0l200.14-200.14 200.14 200.14c24.58 24.561 64.398 24.561 88.959 0l44.48-44.48c24.561-24.58 24.561-64.4 0-88.959z" />
<glyph unicode="&#xf00e;" glyph-name="search-plus" d="M608 512v-64c0-13.199-10.801-24-24-24h-112v-112c0-13.199-10.801-24-24-24h-64c-13.199 0-24 10.801-24 24v112h-112c-13.199 0-24 10.801-24 24v64c0 13.199 10.801 24 24 24h112v112c0 13.199 10.801 24 24 24h64c13.199 0 24-10.801 24-24v-112h112c13.199 0 24-10.801 24-24zM1010-57.4l-56.6-56.6c-18.801-18.801-49.201-18.801-67.801 0l-199.6 199.4c-9 9-14 21.199-14 34v32.6c-70.6-55.199-159.4-88-256-88-229.8 0-416 186.199-416 416s186.199 416 416 416 416-186.199 416-416c0-96.6-32.801-185.4-88-256h32.6c12.801 0 25-5 34-14l199.4-199.4c18.6-18.799 18.6-49.199 0-68zM688 480c0 150.4-121.6 272-272 272s-272-121.6-272-272 121.6-272 272-272 272 121.6 272 272z" />
<glyph unicode="&#xf010;" glyph-name="search-minus" d="M608 512v-64c0-13.199-10.801-24-24-24h-336c-13.199 0-24 10.801-24 24v64c0 13.199 10.801 24 24 24h336c13.199 0 24-10.801 24-24zM1010-57.4l-56.6-56.6c-18.801-18.801-49.201-18.801-67.801 0l-199.6 199.4c-9 9-14 21.199-14 34v32.6c-70.6-55.199-159.4-88-256-88-229.8 0-416 186.199-416 416s186.199 416 416 416 416-186.199 416-416c0-96.6-32.801-185.4-88-256h32.6c12.801 0 25-5 34-14l199.4-199.4c18.6-18.799 18.6-49.199 0-68zM688 480c0 150.4-121.6 272-272 272s-272-121.6-272-272 121.6-272 272-272 272 121.6 272 272z" />
<glyph unicode="&#xf011;" glyph-name="power-off" d="M800 787.8c126-90 208-237.202 208-403.8 0-273.6-221.6-495.4-495-496-273-0.6-496.6 222-497 495.2-0.199 166.602 81.801 314.202 207.6 404.4 23.4 16.6 56 9.6 70-15.4l31.6-56.199c11.801-21 6.201-47.6-13.199-62-83-61.6-136-159.199-136-269.8-0.199-184.6 149-336.2 336-336.2 183.199 0 337.2 148.4 336 338.2-0.6 103.602-49.4 203.602-136.199 268-19.4 14.4-24.801 41-13 61.801l31.6 56.199c14 24.801 46.4 32.201 69.6 15.602zM592 368c0-26.6-21.4-48-48-48h-64c-26.6 0-48 21.4-48 48v480c0 26.6 21.4 48 48 48h64c26.6 0 48-21.4 48-48v-480z" />
<glyph unicode="&#xf012;" glyph-name="signal" horiz-adv-x="1280" d="M432 320c17.68 0 32-14.32 32-32v-384c0-17.68-14.32-32-32-32h-96c-17.68 0-32 14.32-32 32v384c0 17.68 14.32 32 32 32h96zM176 128c17.68 0 32-14.32 32-32v-192c0-17.68-14.32-32-32-32h-96c-17.68 0-32 14.32-32 32v192c0 17.68 14.32 32 32 32h96zM688 512c17.68 0 32-14.32 32-32v-576c0-17.68-14.32-32-32-32h-96c-17.68 0-32 14.32-32 32v576c0 17.68 14.32 32 32 32h96zM944 704c17.68 0 32-14.32 32-32v-768c0-17.68-14.32-32-32-32h-96c-17.68 0-32 14.32-32 32v768c0 17.68 14.32 32 32 32h96zM1200 896c17.68 0 32-14.32 32-32v-960c0-17.68-14.32-32-32-32h-96c-17.68 0-32 14.32-32 32v960c0 17.68 14.32 32 32 32h96z" />
<glyph unicode="&#xf013;" glyph-name="cog" d="M974.8 264.6c9.799-5.6 14.199-17.199 11.199-28.199-22.199-71.4-60-135.801-109.4-189.201-7.6-8.398-19.799-10.199-29.6-4.6l-85.199 49.201c-36-30.602-77.201-54.4-121.602-70.201v-98.4c0-11.199-7.799-21-18.799-23.398-69.801-15.602-145-16.4-218.4 0-11 2.398-18.801 12.199-18.801 23.398v98.4c-44.6 15.6-85.799 39.4-121.6 70.201l-85.199-49.201c-9.6-5.6-22-3.6-29.6 4.6-49.4 53.602-87.201 118-109.4 189.201-3.201 10.799 1.199 22.4 11 28l85.199 49.199c-8.6 46.4-8.6 94 0 140.4l-85.199 49.199c-9.801 5.602-14.4 17.201-11 28 22.199 71.4 60 135.801 109.4 189.201 7.6 8.4 19.799 10.199 29.6 4.6l85-49.199c36 30.6 77.199 54.398 121.6 70.199v98.4c0 11.199 7.801 21 18.801 23.4 69.799 15.6 145 16.398 218.398 0 11-2.4 18.801-12.201 18.801-23.4v-98.201c44.6-15.6 85.801-39.398 121.6-70.199l85.201 49.199c9.6 5.602 22 3.602 29.6-4.6 49.4-53.6 87.199-118 109.4-189.199 3.199-10.801-1.201-22.4-11-28l-85.201-49.201c8.6-46.398 8.6-94 0-140.398zM512 224c88.199 0 160 71.801 160 160s-71.801 160-160 160-160-71.801-160-160 71.801-160 160-160z" />
<glyph unicode="&#xf015;" glyph-name="home" horiz-adv-x="1152" d="M560.74 599.48c4.182 3.371 9.531 5.389 15.316 5.389s11.102-2.018 15.283-5.389l368.66-303.48v-328c0-17.662-14.338-32-32-32l-224.040 0.619c-17.662 0-32.002 14.338-32.002 31.998 0 0.035 0 0.068 0.002 0.104v191.279c0 17.662-14.34 32-32 32h-128c-17.662 0-32-14.338-32-32v-191.42c0-17.607-14.254-31.912-31.842-32l-224.12-0.58c-17.662 0-32 14.338-32 32v327.78zM1143.2 393.060c5.414-4.402 8.852-11.123 8.852-18.637 0-5.777-2.045-11.080-5.451-15.225l-51-62c-4.402-5.326-11.068-8.701-18.514-8.701-5.807 0-11.133 2.066-15.285 5.502l-470.46 387.48c-4.182 3.371-9.533 5.389-15.316 5.389-5.785 0-11.102-2.018-15.283-5.389l-470.44-387.48c-4.15-3.428-9.479-5.512-15.277-5.512-7.465 0-14.141 3.418-18.543 8.771l-51 62c-3.438 4.152-5.525 9.488-5.525 15.293 0 7.445 3.396 14.104 8.725 18.508l506.26 416.94c16.582 13.645 37.934 21.842 61.062 21.842s44.357-8.197 60.938-21.842l179.061-147.32v145.221c0 13.246 10.754 24 24 24h112c13.246 0 24-10.754 24-24v-277.020z" />
<glyph unicode="&#xf017;" glyph-name="clock" d="M512 880c274 0 496-222 496-496s-222-496-496-496-496 222-496 496 222 496 496 496zM696.98 254c4.391 5.479 7.053 12.439 7.053 20 0 10.111-4.701 19.135-12.033 25l-116 85v288c0 17.662-14.338 32-32 32h-64c-17.662 0-32-14.338-32-32v-311.1c0-25.268 11.684-47.795 30-62.461l134-99.439c5.475-4.381 12.428-7.035 19.979-7.035 10.111 0 19.135 4.701 25.002 12.035l40 50z" />
<glyph unicode="&#xf018;" glyph-name="road" horiz-adv-x="1152" d="M1146.38 90.66c18.52-42.381-11-90.66-55.461-90.66h-393.68l-20.621 195.359c-1.719 16.281-15.439 28.641-31.818 28.641h-137.602c-16.379 0-30.1-12.359-31.818-28.641l-20.621-195.359h-393.68c-44.461 0-73.98 48.279-55.48 90.66l279.58 640c9.939 22.76 31.6 37.34 55.461 37.34h195.18l-4.9-46.32c-1-9.439 6.42-17.68 15.92-17.68h58.32c9.5 0 16.92 8.24 15.92 17.68l-4.9 46.32h195.18c23.84 0 45.5-14.58 55.441-37.34zM520.8 625.68l-9.182-87.16c-1.5-14.18 9.602-26.52 23.861-26.52h81.080c14.24 0 25.359 12.34 23.859 26.52l-9.199 87.16c-0.861 8.141-7.74 14.32-15.92 14.32h-78.58c-0.004 0-0.008-0.016-0.010-0.016-8.258 0-15.063-6.27-15.91-14.305zM631.28 288c19 0 33.82 16.461 31.82 35.359l-10.139 96c-1.721 16.281-15.441 28.641-31.82 28.641h-90.301c-16.379 0-30.1-12.359-31.82-28.641l-10.139-96c-2-18.898 12.818-35.359 31.818-35.359h110.58z" />
<glyph unicode="&#xf019;" glyph-name="download" d="M432 896h160c26.6 0 48-21.4 48-48v-336h175.4c35.6 0 53.4-43 28.199-68.199l-304.2-304.4c-15-15-39.6-15-54.6 0l-304.602 304.4c-25.199 25.199-7.398 68.199 28.201 68.199h175.6v336c0 26.6 21.4 48 48 48zM1024 144v-224c0-26.6-21.4-48-48-48h-928c-26.6 0-48 21.4-48 48v224c0 26.6 21.4 48 48 48h293.4l98-98c40.199-40.199 105-40.199 145.199 0l98 98h293.4c26.6 0 48-21.4 48-48zM776-32c0 22-18 40-40 40s-40-18-40-40 18-40 40-40 40 18 40 40zM904-32c0 22-18 40-40 40s-40-18-40-40 18-40 40-40 40 18 40 40z" />
<glyph unicode="&#xf01c;" glyph-name="inbox" horiz-adv-x="1152" d="M1135.876 408.184c10.148-15.221 16.123-33.6 16.123-53.25v-258.934c0-53.020-42.98-96-96-96h-960c-53.020 0-96 42.98-96 96v258.934c0 19.65 5.975 38.029 16.123 53.25l211.378 317.068c17.215 25.82 46.545 42.748 79.877 42.748h537.242c33.334 0 62.664-16.928 79.879-42.748zM324.504 640l-170.668-256h246.164l64-128h224l64 128h246.164l-170.666 256h-502.994z" />
<glyph unicode="&#xf01e;" glyph-name="redo" d="M1000.66 896c13.246 0 24-10.754 24-24v-400.68c0-13.246-10.754-24-24-24h-400.66c-13.246 0-24 10.754-24 24v94.82c0 0.008-0.018 0.018-0.018 0.027 0 13.246 10.754 24 24 24 0.389 0 0.773-0.010 1.158-0.027l203.058-9.74c-63.217 94.064-170.234 155.719-291.984 155.719-194.273 0-352-157.727-352-352s157.727-352 352-352c89.004 0 170.336 33.104 232.346 87.66 4.219 3.688 9.756 5.932 15.795 5.932 6.621 0 12.621-2.688 16.965-7.031l68-68c4.348-4.344 7.045-10.346 7.045-16.973 0-7.104-3.094-13.49-8.006-17.887-87.695-79.385-204.158-127.82-331.648-127.82h-0.711c-273.8 0-495.8 221.86-496 495.62-0.199 273.32 222.68 496.38 496 496.38 0.186 0 0.232 0.281 0.418 0.281 151.184 0 286.624-67.945 377.422-174.941l-8 165.52c-0.018 0.385-0.027 0.752-0.027 1.141 0 13.246 10.754 24 24 24h94.848z" />
<glyph unicode="&#xf021;" glyph-name="sync" d="M881.3 870.86c-0.020 0.385-0.027 0.752-0.027 1.141 0 13.242 10.746 23.992 23.986 24h94.74c13.246 0 24-10.754 24-24v-400.7c0-13.246-10.754-24-24-24h-400.44c-13.246 0-24 10.754-24 24v94.818c0 0.010-0.018 0.020-0.018 0.027 0 13.246 10.754 24 24 24 0.389 0 0.773-0.008 1.156-0.027l202.92-9.719c-63.188 93.988-170.281 155.348-291.946 155.348-165.732 0-304.856-114.846-342.054-269.228-2.484-10.594-11.994-18.508-23.34-18.52h-98.1c-13.246 0-24 10.734-24 23.979 0 1.496 0.139 2.961 0.4 4.381 43.24 229.8 244.88 403.64 487.080 403.64 0.193 0 0.246 0.283 0.439 0.283 151.123 0 286.496-67.963 377.202-174.963zM511.66 32c0.031 0 0.037 0.18 0.066 0.18 165.74 0 304.86 114.887 341.994 269.3 2.484 10.594 11.994 18.508 23.34 18.52h98.1c13.246 0 24-10.734 24-23.979 0-1.496-0.139-2.961-0.4-4.381-43.24-229.8-244.878-403.64-487.1-403.64-0.16 0-0.182-0.281-0.342-0.281-150.963 0-286.212 67.816-376.918 174.621l8.299-165.141c0.021-0.402 0.031-0.791 0.031-1.199 0-13.246-10.754-24-24-24h-94.73c-13.246 0-24 10.754-24 24v400.66c0 13.246 10.754 24 24 24h400.4c13.246 0 24-10.754 24-24v-94.801c0-0.008 0.016-0.018 0.016-0.027 0-13.246-10.754-24-24-24-0.387 0-0.773 0.010-1.156 0.027l-203.6 9.74c63.051-94.018 170.090-155.6 291.694-155.6h0.307z" />
<glyph unicode="&#xf022;" glyph-name="list-alt" d="M928-64h-832c-53.020 0-96 42.98-96 96v704c0 53.020 42.98 96 96 96h832c53.020 0 96-42.98 96-96v-704c0-53.020-42.98-96-96-96zM256 656c-44.182 0-80-35.818-80-80s35.818-80 80-80 80 35.818 80 80-35.818 80-80 80zM256 464c-44.182 0-80-35.818-80-80s35.818-80 80-80 80 35.818 80 80-35.818 80-80 80zM256 272c-44.182 0-80-35.818-80-80s35.818-80 80-80 80 35.818 80 80-35.818 80-80 80zM832 544v64c0 13.254-10.746 24-24 24h-400c-13.254 0-24-10.746-24-24v-64c0-13.254 10.746-24 24-24h400c13.254 0 24 10.746 24 24zM832 352v64c0 13.254-10.746 24-24 24h-400c-13.254 0-24-10.746-24-24v-64c0-13.254 10.746-24 24-24h400c13.254 0 24 10.746 24 24zM832 160v64c0 13.254-10.746 24-24 24h-400c-13.254 0-24-10.746-24-24v-64c0-13.254 10.746-24 24-24h400c13.254 0 24 10.746 24 24z" />
<glyph unicode="&#xf023;" glyph-name="lock" horiz-adv-x="896" d="M800 448c53 0 96-43 96-96v-384c0-53-43-96-96-96h-704c-53 0-96 43-96 96v384c0 53 43 96 96 96h48v144c0 167.6 136.4 304 304 304s304-136.4 304-304v-144h48zM592 448v144c0 79.4-64.6 144-144 144s-144-64.6-144-144v-144h288z" />
<glyph unicode="&#xf024;" glyph-name="flag" d="M699.13 698.434c80.99 0 165.223 31.812 233.898 63.709 42.434 19.707 90.971-11.246 90.971-58.033v-486.2c0-21.053-10.32-40.814-27.686-52.717-71.676-49.127-148.672-81.715-245.010-81.715-134.746 0-223.258 69.566-330.436 69.566-101.705 0-172.248-20.117-228.87-44.244v-188.801c0-26.51-21.49-48-48-48h-32c-26.51 0-48 21.49-48 48v772.11c-29.006 20.24-48 53.838-48 91.891 0 63.408 52.689 114.508 116.676 111.904 56.936-2.316 103.559-47.934 107.102-104.807 0.152-2.383 0.186-4.746 0.186-7.166 0-14.074-2.604-27.547-7.357-39.957 41.473 15.258 86.18 24.025 136.090 24.025 134.746 0 223.26-69.566 330.436-69.566z" />
<glyph unicode="&#xf025;" glyph-name="headphones" d="M512 832c283.008 0 512-229.042 512-512v-96c0-25.062-14.375-46.742-35.381-57.244l-28.764-14.383c-4.021-120.178-102.697-216.374-223.856-216.374h-48c-26.51 0-48 21.49-48 48v352c0 26.51 21.49 48 48 48h48c62.684 0 119.342-25.758 160-67.254v3.254c0 211.738-172.262 384-384 384s-384-172.262-384-384v-3.254c40.658 41.496 97.316 67.254 160 67.254h48c26.51 0 48-21.49 48-48v-352c0-26.51-21.49-48-48-48h-48c-121.158 0-219.834 96.193-223.856 216.374l-28.766 14.383c-21.004 10.502-35.379 32.182-35.379 57.244v96c0 283.008 229.040 512 512 512z" />
<glyph unicode="&#xf026;" glyph-name="volume-off" horiz-adv-x="512" d="M430 754c30 30 82 8.939 82-34v-672c0-42.939-52-64-82-34l-177.881 178h-204.12c-26.492 0-48 21.508-48 48v288c0 26.492 21.508 48 48 48h204z" />
<glyph unicode="&#xf027;" glyph-name="volume-down" horiz-adv-x="768" d="M430.060 751.92c30.020 30 81.939 8.98 81.939-33.959v-671.922c0-42.879-51.881-64-81.939-33.939l-177.941 177.9h-204.12c-26.52 0-48 21.5-48 48v288c0 26.52 21.48 48 48 48h204.12zM676.46 535.76c56.479-31.1 91.559-89.98 91.559-153.74s-35.080-122.66-91.539-153.76c-23.121-12.699-52.361-4.42-65.221 18.9-12.779 23.221-4.32 52.4 18.9 65.221 25.801 14.18 41.84 40.859 41.84 69.619s-16.039 55.439-41.859 69.641c-23.221 12.82-31.68 42-18.9 65.219 12.84 23.221 42.061 31.561 65.221 18.9z" />
<glyph unicode="&#xf028;" glyph-name="volume-up" horiz-adv-x="1152" d="M430.060 753.9c30.020 30.020 81.939 8.98 81.939-33.939v-671.922c0-42.879-51.881-64-81.939-33.939l-177.941 177.9h-204.12c-26.52 0-48 21.5-48 48v288c0 26.52 21.48 48 48 48h204.12zM896.7 856.060c159.84-104.92 255.3-281.4 255.3-472.060s-95.461-367.16-255.3-472.080c-23.16-15.221-52.939-7.52-67.020 13.9-14.68 22.32-8.439 52.359 13.9 67 132.539 86.98 211.64 233.2 211.64 391.16s-79.102 304.18-211.64 391.16c-22.34 14.66-28.58 44.68-13.9 67.020 14.66 22.379 44.68 28.561 67.020 13.9zM960 384c0-127.080-64.119-243.88-171.539-312.48-24-15.359-53.221-5.799-66.24 14.92-14.182 22.58-7.561 52.441 14.818 66.721 79.5 50.779 126.961 137.061 126.961 230.84s-47.461 180.061-126.961 230.84c-22.379 14.301-29 44.16-14.818 66.721 14.18 22.559 43.859 29.199 66.24 14.92 107.42-68.6 171.539-185.42 171.539-312.48zM676.46 537.74c56.479-31.080 91.559-89.961 91.559-153.721s-35.080-122.66-91.539-153.76c-23.121-12.699-52.361-4.42-65.221 18.9-12.779 23.221-4.32 52.4 18.9 65.221 25.801 14.18 41.84 40.859 41.84 69.619 0 28.74-16.039 55.439-41.859 69.619-23.221 12.82-31.68 42-18.9 65.221 12.84 23.221 42.061 31.561 65.221 18.9z" />
<glyph unicode="&#xf029;" glyph-name="qrcode" horiz-adv-x="896" d="M0 448v384h384v-384h-384zM128 704v-128h128v128h-128zM512 832h384v-384h-384v384zM768 576v128h-128v-128h128zM0-64v384h384v-384h-384zM128 192v-128h128v128h-128zM832 320h64v-256h-192v64h-64v-192h-128v384h192v-64h128v64zM832 0h64v-64h-64v64zM704 0h64v-64h-64v64z" />
<glyph unicode="&#xf02a;" glyph-name="barcode" d="M0 0v768h36v-768h-36zM53.715 0.547v767.454h18.285v-767.454h-18.285zM108 0.547v767.454h17.715v-767.454h-17.715zM197.715 0.547v767.454h17.713v-767.454h-17.713zM269.714 0.547v767.454h35.428v-767.454h-35.428zM359.428 0.547v767.454h17.715v-767.454h-17.715zM395.428 0.547v767.454h17.715v-767.454h-17.715zM431.428 0.547v767.454h17.715v-767.454h-17.715zM502.858 0.547v767.454h36v-767.454h-36zM592.572 0.547v767.454h36v-767.454h-36zM664.57 0.547v767.454h36.002v-767.454h-36.002zM736.572 0.547v767.454h36.002v-767.454h-36.002zM790.286 0.547v767.454h36v-767.454h-36zM880.572 0.547v767.454h53.713v-767.454h-53.713zM952 0.547v767.454h18.285v-767.454h-18.285zM988 0v768h36v-768h-36z" />
<glyph unicode="&#xf02b;" glyph-name="tag" d="M0 391.764v408.236c0 53.020 42.98 96 96 96h408.236c26.492 0 50.504-10.74 67.881-28.117l423.766-423.766c37.488-37.488 37.488-98.273 0-135.764l-408.236-408.236c-37.49-37.488-98.275-37.488-135.764 0l-423.766 423.766c-17.377 17.377-28.117 41.389-28.117 67.881zM224 768c-53.020 0-96-42.98-96-96s42.98-96 96-96 96 42.98 96 96-42.98 96-96 96z" />
<glyph unicode="&#xf02c;" glyph-name="tags" horiz-adv-x="1280" d="M995.882 444.118c37.488-37.488 37.488-98.273 0-135.764l-408.236-408.236c-37.492-37.49-98.277-37.488-135.764 0l-423.766 423.766c-17.377 17.377-28.117 41.389-28.117 67.881v408.236c0 53.020 42.98 96 96 96h408.236c26.492 0 50.504-10.74 67.881-28.117zM224 576c53.020 0 96 42.98 96 96s-42.98 96-96 96-96-42.98-96-96 42.98-96 96-96zM1251.882 308.354l-408.236-408.236c-37.49-37.488-98.275-37.488-135.764 0l-0.721 0.721 348.118 348.118c33.998 33.998 52.721 79.201 52.721 127.281s-18.725 93.281-52.721 127.279l-392.484 392.484h97.441c26.492 0 50.504-10.74 67.881-28.117l423.766-423.766c37.488-37.488 37.488-98.273 0-135.764z" />
<glyph unicode="&#xf02d;" glyph-name="book" horiz-adv-x="896" d="M896 176c0-15-7-28.6-17.801-37.199-8.398-30.801-8.398-118.602 0-149.4 10.801-8.801 17.801-22.4 17.801-37.4v-32c0-26.6-21.4-48-48-48h-656c-106 0-192 86-192 192v640c0 106 86 192 192 192h656c26.6 0 48-21.4 48-48v-672zM256 628v-40c0-6.6 5.4-12 12-12h424c6.6 0 12 5.4 12 12v40c0 6.6-5.4 12-12 12h-424c-6.6 0-12-5.4-12-12zM256 500v-40c0-6.6 5.4-12 12-12h424c6.6 0 12 5.4 12 12v40c0 6.6-5.4 12-12 12h-424c-6.6 0-12-5.4-12-12zM762.8 0c-3.801 34.199-3.801 93.801 0 128h-570.8c-35.199 0-64-28.801-64-64 0-35.4 28.6-64 64-64h570.8z" />
<glyph unicode="&#xf02e;" glyph-name="bookmark" horiz-adv-x="768" d="M0-128v928c0 53.020 42.98 96 96 96h576c53.020 0 96-42.98 96-96v-928l-384 224z" />
<glyph unicode="&#xf02f;" glyph-name="print" d="M896 512c70.699 0 128-57.301 128-128v-224c0-17.68-14.32-32-32-32h-96v-192c0-35.34-28.66-64-64-64h-640c-35.34 0-64 28.66-64 64v192h-96c-17.68 0-32 14.32-32 32v224c0 70.699 57.301 128 128 128v320c0 35.34 28.66 64 64 64h549.48c16.98 0 33.26-6.74 45.26-18.74l90.52-90.5c12-12.020 18.74-28.279 18.74-45.26v-229.5zM768 0v192h-512v-192h512zM768 448v192h-96c-17.68 0-32 14.32-32 32v96h-384v-320h512zM864 304c26.5 0 48 21.5 48 48 0 26.52-21.5 48-48 48s-48-21.48-48-48c0-26.5 21.5-48 48-48z" />
<glyph unicode="&#xf030;" glyph-name="camera" d="M1024 608v-576c0-53-43-96-96-96h-832c-53 0-96 43-96 96v576c0 53 43 96 96 96h176l24.6 65.801c14 37.398 49.801 62.199 89.801 62.199h251c40 0 75.799-24.801 89.799-62.199l24.801-65.801h176c53 0 96-43 96-96zM752 320c0 132.4-107.6 240-240 240s-240-107.6-240-240 107.6-240 240-240 240 107.6 240 240zM688 320c0-97-79-176-176-176s-176 79-176 176 79 176 176 176 176-79 176-176z" />
<glyph unicode="&#xf03d;" glyph-name="video" horiz-adv-x="1152" d="M672.4 768c52.799 0 95.6-42.801 95.6-95.6v-576.8c0-52.799-42.801-95.6-95.6-95.6h-576.8c-52.799 0-95.6 42.801-95.6 95.6v576.8c0 52.799 42.801 95.6 95.6 95.6h576.8zM1051.2 692.6c42.602 29.201 100.801-0.799 100.801-51.6v-513.8c0-51-58.4-80.799-100.801-51.6l-219.2 151v314.8z" />
<glyph unicode="&#xf03e;" glyph-name="image" d="M928 0h-832c-53.020 0-96 42.98-96 96v576c0 53.020 42.98 96 96 96h832c53.020 0 96-42.98 96-96v-576c0-53.020-42.98-96-96-96zM224 656c-61.855 0-112-50.145-112-112s50.145-112 112-112 112 50.145 112 112-50.145 112-112 112zM128 128h768v224l-175.029 175.029c-9.373 9.373-24.568 9.373-33.943 0l-271.028-271.030-111.029 111.029c-9.373 9.373-24.568 9.373-33.943 0l-143.027-143.029v-96z" />
<glyph unicode="&#xf041;" glyph-name="map-marker" horiz-adv-x="768" d="M344.536-107.34c-290.596 421.278-344.536 464.514-344.536 619.34 0 212.078 171.922 384 384 384s384-171.922 384-384c0-154.826-53.939-198.062-344.536-619.34-19.070-27.549-59.861-27.547-78.93 0z" />
<glyph unicode="&#xf042;" glyph-name="adjust" d="M16 384c0 273.934 222.068 496 496 496s496-222.068 496-496-222.066-496-496-496-496 222.068-496 496zM512 16c203.378 0 368 164.59 368 368 0 203.378-164.59 368-368 368v-736z" />
<glyph unicode="&#xf043;" glyph-name="tint" horiz-adv-x="704" d="M410.44 851.82c93.98-316.96 293.56-400.14 293.56-623.64 0-196.879-157.439-356.18-352-356.18s-352 159.301-352 356.18c0 222.38 200.020 308.122 293.56 623.64 18 60.24 101 57.561 116.879 0zM352 0c17.68 0 32 14.32 32 32s-14.32 32-32 32c-88.221 0-160 71.779-160 160 0 17.68-14.32 32-32 32s-32-14.32-32-32c0-123.5 100.5-224 224-224z" />
<glyph unicode="&#xf044;" glyph-name="edit" horiz-adv-x="1152" d="M805.2 729.6l180.4-180.4c7.6-7.6 7.6-20 0-27.6l-436.798-436.798-185.602-20.602c-24.799-2.799-45.799 18.201-43 43l20.602 185.602 436.798 436.798c7.6 7.6 20 7.6 27.6 0zM1129.2 775.4c30.4-30.4 30.4-79.801 0-110.4l-70.799-70.801c-7.6-7.6-20-7.6-27.6 0l-180.4 180.4c-7.6 7.6-7.6 20 0 27.6l70.799 70.801c30.602 30.4 80 30.4 110.4 0zM768 203.6c0 6.4 2.6 12.4 7 17l80 80c15.199 15 41 4.4 41-17v-315.6c0-53-43-96-96-96h-704c-53 0-96 43-96 96v704c0 53 43 96 96 96h571.6c21.4 0 32.201-25.801 17-41l-80-80c-4.6-4.4-10.6-7-17-7h-459.6v-640h640v203.6z" />
<glyph unicode="&#xf055;" glyph-name="plus-circle" d="M512 880c274 0 496-222 496-496s-222-496-496-496-496 222-496 496 222 496 496 496zM800 328v112c0 13.199-10.801 24-24 24h-184v184c0 13.199-10.801 24-24 24h-112c-13.199 0-24-10.801-24-24v-184h-184c-13.199 0-24-10.801-24-24v-112c0-13.199 10.801-24 24-24h184v-184c0-13.199 10.801-24 24-24h112c13.199 0 24 10.801 24 24v184h184c13.199 0 24 10.801 24 24z" />
<glyph unicode="&#xf056;" glyph-name="minus-circle" d="M512 880c274 0 496-222 496-496s-222-496-496-496-496 222-496 496 222 496 496 496zM248 304h528c13.199 0 24 10.801 24 24v112c0 13.199-10.801 24-24 24h-528c-13.199 0-24-10.801-24-24v-112c0-13.199 10.801-24 24-24z" />
<glyph unicode="&#xf057;" glyph-name="times-circle" d="M512 880c274 0 496-222 496-496s-222-496-496-496-496 222-496 496 222 496 496 496zM755.2 253.8l-131.199 130.199 131.4 130c9.4 9.4 9.4 24.6 0 34l-79.201 79.199c-9.398 9.4-24.6 9.4-34 0l-130.199-131.199-130 131.4c-9.4 9.4-24.6 9.4-34 0l-79.199-79.201c-9.4-9.398-9.4-24.6 0-34l131.199-130.199-131.199-130c-9.4-9.4-9.4-24.6 0-34l79-79.199c9.398-9.4 24.6-9.4 34 0l130.199 131.199 130-131.199c9.4-9.4 24.6-9.4 34 0l79.199 79c9.4 9.398 9.4 24.6 0 34z" />
<glyph unicode="&#xf058;" glyph-name="check-circle" d="M1008 384c0-273.934-222.066-496-496-496s-496 222.066-496 496 222.066 496 496 496 496-222.066 496-496zM454.628 121.371l368 368c12.494 12.496 12.494 32.76 0 45.256l-45.256 45.254c-12.494 12.498-32.758 12.498-45.256 0l-300.118-300.118-140.117 140.119c-12.496 12.496-32.76 12.496-45.256 0l-45.256-45.254c-12.494-12.496-12.494-32.76 0-45.256l208-208c12.498-12.496 32.76-12.496 45.258-0.002z" />
<glyph unicode="&#xf060;" glyph-name="arrow-left" horiz-adv-x="896" d="M515 5.801l-44.4-44.4c-18.799-18.801-49.199-18.801-67.799 0l-388.8 388.6c-18.801 18.801-18.801 49.199 0 67.801l388.8 388.798c18.799 18.801 49.199 18.801 67.799 0l44.4-44.4c19-19 18.6-50-0.801-68.6l-241-229.6h574.8c26.6 0 48-21.4 48-48v-64c0-26.6-21.4-48-48-48h-574.8l241-229.6c19.602-18.6 20-49.6 0.801-68.6z" />
<glyph unicode="&#xf061;" glyph-name="arrow-right" horiz-adv-x="896" d="M381 762.2l44.4 44.4c18.799 18.801 49.199 18.801 67.799 0l388.8-388.6c18.801-18.801 18.801-49.199 0-67.801l-388.8-388.798c-18.799-18.801-49.199-18.801-67.799 0l-44.4 44.4c-19 19-18.6 50 0.801 68.6l241 229.6h-574.8c-26.6 0-48 21.4-48 48v64c0 26.6 21.4 48 48 48h574.8l-241 229.6c-19.602 18.6-20 49.6-0.801 68.6z" />
<glyph unicode="&#xf062;" glyph-name="arrow-up" horiz-adv-x="896" d="M69.801 317l-44.4 44.4c-18.801 18.799-18.801 49.199 0 67.799l388.6 388.8c18.801 18.801 49.199 18.801 67.801 0l388.6-388.6c18.799-18.801 18.799-49.201 0-67.801l-44.4-44.4c-19-19-50-18.6-68.6 0.801l-229.4 240.8v-574.8c0-26.6-21.4-48-48-48h-64c-26.6 0-48 21.4-48 48v574.8l-229.6-241c-18.6-19.602-49.6-20-68.6-0.801z" />
<glyph unicode="&#xf063;" glyph-name="arrow-down" horiz-adv-x="896" d="M826.2 451l44.4-44.4c18.801-18.799 18.801-49.199 0-67.799l-388.6-388.8c-18.801-18.801-49.199-18.801-67.801 0l-388.798 388.8c-18.801 18.799-18.801 49.199 0 67.799l44.4 44.4c19 19 50 18.6 68.6-0.801l229.6-241v574.8c0 26.6 21.4 48 48 48h64c26.6 0 48-21.4 48-48v-574.8l229.6 241c18.6 19.602 49.6 20 68.6 0.801z" />
<glyph unicode="&#xf064;" glyph-name="share" d="M1007.382 516.328c22.172-19.15 22.141-53.531 0-72.656l-352.010-304c-30.773-26.578-79.373-5.072-79.373 36.328v175.83c-310.166-4.463-443.868-81.459-353.18-371.484 10.068-32.195-28.848-57.123-56.154-37.262-87.504 63.646-166.666 185.383-166.666 308.264 0 304.454 254.742 368.838 576 372.516v160.107c0 41.336 48.562 62.938 79.373 36.328z" />
<glyph unicode="&#xf065;" glyph-name="expand" horiz-adv-x="896" d="M0 536v248c0 26.6 21.4 48 48 48h248c13.199 0 24-10.801 24-24v-80c0-13.199-10.801-24-24-24h-168v-168c0-13.199-10.801-24-24-24h-80c-13.199 0-24 10.801-24 24zM576 808c0 13.199 10.801 24 24 24h248c26.6 0 48-21.4 48-48v-248c0-13.199-10.801-24-24-24h-80c-13.199 0-24 10.801-24 24v168h-168c-13.199 0-24 10.801-24 24v80zM872 256c13.199 0 24-10.801 24-24v-248c0-26.6-21.4-48-48-48h-248c-13.199 0-24 10.801-24 24v80c0 13.199 10.801 24 24 24h168v168c0 13.199 10.801 24 24 24h80zM320-40c0-13.199-10.801-24-24-24h-248c-26.6 0-48 21.4-48 48v248c0 13.199 10.801 24 24 24h80c13.199 0 24-10.801 24-24v-168h168c13.199 0 24-10.801 24-24v-80z" />
<glyph unicode="&#xf066;" glyph-name="compress" horiz-adv-x="896" d="M872 512h-248c-26.6 0-48 21.4-48 48v248c0 13.199 10.801 24 24 24h80c13.199 0 24-10.801 24-24v-168h168c13.199 0 24-10.801 24-24v-80c0-13.199-10.801-24-24-24zM320 560c0-26.6-21.4-48-48-48h-248c-13.199 0-24 10.801-24 24v80c0 13.199 10.801 24 24 24h168v168c0 13.199 10.801 24 24 24h80c13.199 0 24-10.801 24-24v-248zM320-40c0-13.199-10.801-24-24-24h-80c-13.199 0-24 10.801-24 24v168h-168c-13.199 0-24 10.801-24 24v80c0 13.199 10.801 24 24 24h248c26.6 0 48-21.4 48-48v-248zM704-40c0-13.199-10.801-24-24-24h-80c-13.199 0-24 10.801-24 24v248c0 26.6 21.4 48 48 48h248c13.199 0 24-10.801 24-24v-80c0-13.199-10.801-24-24-24h-168v-168z" />
<glyph unicode="&#xf067;" glyph-name="plus" horiz-adv-x="896" d="M832 480c35.34 0 64-28.66 64-64v-64c0-35.34-28.66-64-64-64h-288v-288c0-35.34-28.66-64-64-64h-64c-35.34 0-64 28.66-64 64v288h-288c-35.34 0-64 28.66-64 64v64c0 35.34 28.66 64 64 64h288v288c0 35.34 28.66 64 64 64h64c35.34 0 64-28.66 64-64v-288h288z" />
<glyph unicode="&#xf068;" glyph-name="minus" horiz-adv-x="896" d="M832 480c35.34 0 64-28.66 64-64v-64c0-35.34-28.66-64-64-64h-768c-35.34 0-64 28.66-64 64v64c0 35.34 28.66 64 64 64h768z" />
<glyph unicode="&#xf069;" glyph-name="asterisk" d="M956.42 227.814c23.59-12.955 31.92-42.766 18.465-66.072l-38.961-67.482c-13.455-23.307-43.441-30.998-66.453-17.045l-277.47 168.221 6.951-324.408c0.576-26.906-21.078-49.027-47.988-49.027h-77.924c-26.91 0-48.564 22.121-47.988 49.027l6.949 324.408-277.47-168.223c-23.012-13.953-52.998-6.262-66.453 17.045l-38.961 67.482c-13.457 23.307-5.125 53.119 18.465 66.074l284.42 156.186-284.418 156.184c-23.59 12.955-31.922 42.768-18.467 66.074l38.961 67.482c13.455 23.307 43.441 30.998 66.453 17.045l277.47-168.221-6.947 324.408c-0.578 26.906 21.076 49.027 47.986 49.027h77.922c26.912 0 48.564-22.121 47.988-49.027l-6.949-324.408 277.47 168.223c23.014 13.953 52.998 6.262 66.453-17.045l38.961-67.482c13.457-23.307 5.125-53.119-18.465-66.074l-284.42-156.186z" />
<glyph unicode="&#xf06a;" glyph-name="exclamation-circle" d="M1008 384c0-273.994-222.086-496-496-496s-496 222.006-496 496c0 273.834 222.086 496 496 496s496-222.166 496-496zM512 284c-50.811 0-92-41.189-92-92s41.189-92 92-92 92 41.189 92 92-41.189 92-92 92zM424.654 614.692l14.836-272c0.693-12.727 11.217-22.691 23.963-22.691h97.094c12.746 0 23.27 9.965 23.963 22.691l14.836 272c0.75 13.748-10.195 25.309-23.963 25.309h-126.768c-13.768 0-24.711-11.561-23.961-25.309z" />
<glyph unicode="&#xf06b;" glyph-name="gift" d="M64 0v256h384v-320h-320c-35.4 0-64 28.6-64 64zM576-64v320h384v-256c0-35.4-28.6-64-64-64h-320zM960 576c35.4 0 64-28.6 64-64v-160c0-17.6-14.4-32-32-32h-960c-17.6 0-32 14.4-32 32v160c0 35.4 28.6 64 64 64h88.199c-12.6 24.199-20.199 51-20.199 80 0 97 79 176 176 176 83.199 0 137-42.6 206-136.6 69 94 122.801 136.6 206 136.6 97 0 176-79 176-176 0-29-7.801-55.801-20.199-80h84.199zM307.8 576h172.199c-103 153.4-132.4 160-172.199 160-44.201 0-80-35.801-80-80s35.799-80 80-80zM720 576c44.199 0 80 35.801 80 80s-35.801 80-80 80c-40.801 0-69.4-7-172.199-160h172.199z" />
<glyph unicode="&#xf06c;" glyph-name="leaf" horiz-adv-x="1152" d="M1092.4 876.6c38-84.799 59.6-188.799 59.6-289.2 0-344.8-221-626.4-535-649.202-161.801-17.199-285 66.602-349.8 154.4-102-85.4-140.799-174-143.799-181.199-13.6-32.4-50.801-48.201-83.6-34.6-32.602 13.398-48.201 50.6-35 83.199 47.199 115.801 260.398 424 763.2 424 17.6 0 32 14.4 32 32s-14.4 32-32 32c-261.2 0-445.4-77.6-573-169-1.4 13.6-3 27-3 41 0 212 172 384 384 384h160c126.801 0 237.8 67.199 299.8 175 13.398 23.6 45.398 22.6 56.6-2.4z" />
<glyph unicode="&#xf06e;" glyph-name="eye" horiz-adv-x="1152" d="M1145.040 413.2c4.428-8.756 6.922-18.779 6.922-29.252 0-10.475-2.494-20.371-6.922-29.127-108.398-211.542-323.18-354.82-569.040-354.82s-460.58 143.18-569.040 354.8c-4.428 8.756-6.922 18.779-6.922 29.252 0 10.475 2.494 20.371 6.922 29.127 108.398 211.542 323.18 354.82 569.040 354.82s460.58-143.18 569.040-354.8zM576 96c0.047 0 0.092-0.002 0.141-0.002 158.873 0 287.86 128.984 287.86 287.86v0.143c0 158.951-129.049 288-288 288s-288-129.049-288-288 129.049-288 288-288zM576 576c0.152 0 0.32-0.055 0.475-0.055 105.725 0 191.561-85.834 191.561-191.559s-85.836-191.561-191.561-191.561-191.561 85.836-191.561 191.561c0 17.379 2.32 34.221 6.666 50.232 15.863-11.672 35.486-18.535 56.672-18.535 52.818 0 95.699 42.881 95.699 95.699 0 21.188-6.898 40.773-18.57 56.637 16.092 4.686 33.082 7.336 50.619 7.58z" />
<glyph unicode="&#xf070;" glyph-name="eye-slash" horiz-adv-x="1280" d="M640 96c17.826 0.166 35.084 1.953 52 5.221l103.779-80.301c-50.039-12.92-101.959-20.92-155.779-20.92-245.86 0-460.58 143.18-569.040 354.8-4.428 8.756-6.922 18.779-6.922 29.252 0 10.475 2.494 20.371 6.922 29.127 20.479 40 45.859 76.58 73.439 111.18l209.798-162.139c11.301-148.801 134.102-266.22 285.8-266.22zM1267.64-20.199c7.537-5.857 12.354-15.020 12.354-25.295 0-7.385-2.506-14.188-6.715-19.605l-39.279-50.541c-5.857-7.537-15.018-12.352-25.293-12.352-7.395 0-14.205 2.514-19.627 6.732l-1176.72 909.458c-7.531 5.857-12.342 15.016-12.342 25.285 0 7.389 2.51 14.197 6.723 19.615l39.26 50.541c5.857 7.537 15.018 12.352 25.293 12.352 7.395 0 14.205-2.514 19.627-6.732l254.44-196.66c87.369 47.713 188.193 75.271 294.64 75.4 245.86 0 460.58-143.18 569.040-354.8 4.428-8.756 6.922-18.779 6.922-29.252 0-10.475-2.494-20.371-6.922-29.127-40.422-78.777-95.381-147.576-162.5-204.14zM900.2 263.8c17.221 36.641 27.801 76.939 27.801 120.199 0 0.055 0.004 0.105 0.004 0.16 0 158.863-128.977 287.84-287.84 287.84h-0.164c-69.266-0.051-132.951-24.98-182.301-66.221l147.221-113.779c1.715 6.41 2.777 13.125 3.080 20-0.037 21.078-6.98 40.648-18.619 56.42 16.863 4.924 34.672 7.641 53.115 7.641 104.6 0 189.521-84.92 189.521-189.52 0-0.848-0.006-1.695-0.018-2.541-0.277-20.754-3.951-40.803-10.4-59.439z" />
<glyph unicode="&#xf071;" glyph-name="exclamation-triangle" horiz-adv-x="1152" d="M1139.034 15.975c36.916-63.988-9.422-143.975-83.152-143.975h-959.774c-73.873 0-119.998 80.109-83.154 143.975l479.892 832.054c36.934 64.020 129.439 63.902 166.309 0zM576 188c-50.811 0-92-41.189-92-92s41.189-92 92-92 92 41.189 92 92-41.189 92-92 92zM488.654 518.692l14.836-272c0.693-12.727 11.217-22.691 23.963-22.691h97.094c12.746 0 23.27 9.965 23.963 22.691l14.836 272c0.75 13.748-10.195 25.309-23.963 25.309h-126.768c-13.768 0-24.711-11.561-23.961-25.309z" />
<glyph unicode="&#xf073;" glyph-name="calendar-alt" horiz-adv-x="896" d="M0-32v544h896v-544c0-53-43-96-96-96h-704c-53 0-96 43-96 96zM640 360v-80c0-13.199 10.801-24 24-24h80c13.199 0 24 10.801 24 24v80c0 13.199-10.801 24-24 24h-80c-13.199 0-24-10.801-24-24zM640 104v-80c0-13.199 10.801-24 24-24h80c13.199 0 24 10.801 24 24v80c0 13.199-10.801 24-24 24h-80c-13.199 0-24-10.801-24-24zM384 360v-80c0-13.199 10.801-24 24-24h80c13.199 0 24 10.801 24 24v80c0 13.199-10.801 24-24 24h-80c-13.199 0-24-10.801-24-24zM384 104v-80c0-13.199 10.801-24 24-24h80c13.199 0 24 10.801 24 24v80c0 13.199-10.801 24-24 24h-80c-13.199 0-24-10.801-24-24zM128 360v-80c0-13.199 10.801-24 24-24h80c13.199 0 24 10.801 24 24v80c0 13.199-10.801 24-24 24h-80c-13.199 0-24-10.801-24-24zM128 104v-80c0-13.199 10.801-24 24-24h80c13.199 0 24 10.801 24 24v80c0 13.199-10.801 24-24 24h-80c-13.199 0-24-10.801-24-24zM800 768c53 0 96-43 96-96v-96h-896v96c0 53 43 96 96 96h96v96c0 17.6 14.4 32 32 32h64c17.6 0 32-14.4 32-32v-96h256v96c0 17.6 14.4 32 32 32h64c17.6 0 32-14.4 32-32v-96h96z" />
<glyph unicode="&#xf079;" glyph-name="retweet" horiz-adv-x="1280" d="M1259.314 208.804l-201.374-201.374c-18.746-18.744-49.135-18.744-67.881 0l-201.376 201.374c-18.746 18.746-18.746 49.137 0 67.881l21.646 21.646c19.123 19.123 50.266 18.68 68.838-0.984l80.83-85.584v364.236h-375.098c-13.246 0-25.252 5.371-33.941 14.059l-32 32c-30.238 30.24-8.822 81.941 33.941 81.941h487.098c26.51 0 48-21.49 48-48v-444.236l80.832 85.584c18.57 19.662 49.713 20.107 68.838 0.984l21.646-21.646c18.744-18.744 18.744-49.137-0.002-67.881zM729.038 177.941l32.002-32c30.238-30.24 8.822-81.941-33.941-81.941h-487.098c-26.51 0-48 21.49-48 48v444.238l-80.832-85.586c-18.572-19.662-49.715-20.105-68.838-0.982l-21.645 21.645c-18.746 18.744-18.746 49.135 0 67.881l201.376 201.374c18.744 18.746 49.135 18.746 67.881 0l201.374-201.372c18.746-18.744 18.746-49.135 0-67.881l-21.645-21.645c-19.125-19.125-50.266-18.68-68.838 0.982l-80.832 85.584v-364.238h375.096c13.246 0 25.254-5.369 33.941-14.059z" />
<glyph unicode="&#xf07a;" glyph-name="shopping-cart" horiz-adv-x="1152" d="M1056.24 293.362c-4.967-21.854-24.395-37.361-46.807-37.361h-586.29l13.090-64h536.836c30.801 0 53.631-28.602 46.807-58.639l-11.035-48.551c37.383-18.146 63.158-56.467 63.158-100.811 0-61.855-50.145-112-112-112s-112 50.145-112 112c0 31.348 12.895 59.67 33.646 80h-419.294c20.754-20.33 33.648-48.652 33.648-80 0-61.855-50.145-112-112-112s-112 50.145-112 112c0 41.557 22.65 77.801 56.262 97.131l-140.496 686.87h-139.766c-26.51 0-48 21.49-48 48v32c0 26.51 21.49 48 48 48h205.058c22.801 0 42.457-16.043 47.025-38.381l18.332-89.619h785.564c30.801 0 53.631-28.602 46.805-58.639z" />
<glyph unicode="&#xf07b;" glyph-name="folder" d="M928 640c53.020 0 96-42.98 96-96v-448c0-53.020-42.98-96-96-96h-832c-53.020 0-96 42.98-96 96v576c0 53.020 42.98 96 96 96h320l128-128h384z" />
<glyph unicode="&#xf07c;" glyph-name="folder-open" horiz-adv-x="1152" d="M1145.388 311.814l-144.85-248.31c-22.193-38.049-63.373-63.504-110.561-63.504h-799.928c-37.047 0-60.129 40.186-41.463 72.186l144.848 248.31c22.197 38.049 63.375 63.504 110.564 63.504h799.928c37.047 0 60.129-40.186 41.461-72.186zM304 448c-68.021 0-131.572-36.5-165.846-95.256l-138.154-236.836v556.092c0 53.020 42.98 96 96 96h320l128-128h320c53.020 0 96-42.98 96-96v-96h-656z" />
<glyph unicode="&#xf080;" glyph-name="chart-bar" d="M665.6 256c-12.799 0-25.6 12.801-25.6 25.6v268.8c0 12.799 12.801 25.6 25.6 25.6h76.801c12.799 0 25.6-12.801 25.6-25.6v-268.8c0-12.799-12.801-25.6-25.6-25.6h-76.801zM857.6 256c-12.799 0-25.6 12.801-25.6 25.6v460.8c0 12.799 12.801 25.6 25.6 25.6h76.801c12.799 0 25.6-12.801 25.6-25.6v-460.8c0-12.799-12.801-25.6-25.6-25.6h-76.801zM281.6 256c-12.799 0-25.6 12.801-25.6 25.6v140.801c0 12.799 12.801 25.6 25.6 25.6h76.801c12.799 0 25.6-12.801 25.6-25.6v-140.801c0-12.799-12.801-25.6-25.6-25.6h-76.801zM473.6 256c-12.799 0-25.6 12.801-25.6 25.6v396.8c0 12.799 12.801 25.6 25.6 25.6h76.801c12.799 0 25.6-12.801 25.6-25.6v-396.8c0-12.799-12.801-25.6-25.6-25.6h-76.801zM992 128c17.68 0 32-14.32 32-32v-64c0-17.68-14.32-32-32-32h-928c-35.34 0-64 28.66-64 64v672c0 17.68 14.32 32 32 32h64c17.68 0 32-14.32 32-32v-608h864z" />
<glyph unicode="&#xf08c;" glyph-name="linkedin" d="M832 832c35.199 0 64-29 64-64.6v-766.8c0-35.6-28.801-64.6-64-64.6h-768.2c-35.201 0-63.801 29-63.801 64.6v766.8c0 35.6 28.6 64.6 63.801 64.6h768.2zM270.8 64h0.199v427.6h-133v-427.6h132.801zM204.4 550c42.6 0 77 34.4 77 77 0 42.4-34.6 77-77 77-42.6 0-77-34.6-77-77s34.4-77 77-77zM768.6 64v234.4c0 115.199-25 203.798-159.4 203.798-64.6 0-108-35.398-125.799-69h-1.801v58.4h-127.4v-427.6h132.801v211.6c0 55.801 10.6 109.801 79.801 109.801 68 0 69-63.801 69-113.4v-208h132.799z" />
<glyph unicode="&#xf099;" glyph-name="twitter" d="M918.74 592.568c0.65-9.096 0.65-18.195 0.65-27.291 0-277.44-211.166-597.116-597.118-597.116-118.904 0-229.36 34.438-322.274 94.211 16.895-1.947 33.137-2.598 50.68-2.598 98.109 0 188.426 33.137 260.548 89.664-92.264 1.951-169.584 62.377-196.225 145.545 12.996-1.949 25.99-3.248 39.637-3.248 18.842 0 37.686 2.6 55.227 7.146-96.162 19.494-168.285 103.959-168.285 205.968v2.598c27.938-15.594 60.428-25.34 94.861-26.637-56.527 37.686-93.561 102.010-93.561 174.781 0 38.984 10.393 74.721 28.588 105.908 103.309-127.35 258.6-210.516 432.728-219.614-3.248 15.594-5.197 31.836-5.197 48.080 0 115.654 93.564 209.868 209.868 209.868 60.428 0 115.004-25.34 153.342-66.273 47.43 9.096 92.91 26.639 133.197 50.68-15.596-48.732-48.732-89.666-92.264-115.654 42.234 4.547 83.168 16.244 120.852 32.486-28.584-41.582-64.322-78.617-105.256-108.506z" />
<glyph unicode="&#xf09a;" glyph-name="facebook" d="M1008 384c0-247.56-181.381-452.76-418.5-490v346.62h115.561l22 143.381h-137.561v93.1c0 39.221 19.221 77.461 80.82 77.461h62.561v122s-56.762 9.68-111.041 9.68c-113.34 0-187.34-68.66-187.34-192.961v-109.279h-126v-143.381h126v-346.62c-237.12 37.24-418.5 242.44-418.5 490 0 274 222 496 496 496s496-222 496-496z" />
<glyph unicode="&#xf09b;" glyph-name="github" horiz-adv-x="992" d="M331.8 101.199c0-4-4.602-7.199-10.4-7.199-6.6-0.6-11.201 2.6-11.201 7.199 0 4 4.602 7.201 10.4 7.201 6 0.6 11.201-2.6 11.201-7.201zM269.6 110.199c1.4 4 7.201 6 12.4 4.602 6-1.801 9.801-6.4 8.6-10.4-1.199-4-7.199-6-12.4-4-6 1.199-10 5.799-8.6 9.799zM358 113.6c5.801 0.6 11.199-2 11.801-5.799 0.6-4-3.4-7.801-9.201-9.201-6-1.4-11.199 1.201-11.799 5.201-0.602 4.6 3.398 8.398 9.199 9.799zM489.6 880c277.4 0 502.4-210.6 502.4-488 0-221.8-135.6-411.6-335.6-478-25.4-4.6-34.6 11.199-34.6 24.199 0 16.4 0.6 99.801 0.6 167.201 0 47-15.6 77-34 92.799 111.799 12.602 229.6 28 229.6 221 0 54.801-19.6 82.4-51.6 117.801 5.199 13 22.199 66.4-5.201 135.801-41.799 13.199-138-54-138-54-40 11.199-83 17-125.6 17s-85.6-5.801-125.6-17c0 0-96.199 67-138 54-27.4-69.201-10.4-122.801-5.199-135.801-32-35.199-47.201-62.801-47.201-117.801 0-192.398 112.801-208.6 224.6-221-14.398-13.199-27.398-35.398-32-67.398-28.6-13.201-102-35.4-145.799 41.799-27.4 47.6-77.201 51.6-77.201 51.6-49 0.602-3.199-30.799-3.199-30.799 32.801-15 55.6-73.201 55.6-73.201 29.4-89.6 169.4-59.6 169.4-59.6 0-42 0.6-110.4 0.6-122.799 0-13-9-28.801-34.6-24.201-199.4 66.801-339 256.6-339 478.4 0 277.4 212.2 488 489.6 488zM194.4 190.199c2.6 2.602 7.199 1.201 10.4-2 3.398-3.799 4-8.398 1.398-10.398-2.6-2.602-7.199-1.201-10.398 2-3.4 3.799-4 8.398-1.4 10.398zM172.801 206.4c1.398 2 4.6 2.6 8.6 1.4 4-2 6-5.201 4.6-7.801-1.4-2.801-5.4-3.4-8.6-1.4-4 2-6 5.201-4.6 7.801zM237.6 135.199c2.6 3.201 8.6 2.602 13-2 4-3.799 5.201-9.799 2.6-12.398-2.6-3.201-8.398-2.602-13 2-4.6 3.799-5.799 9.799-2.6 12.398zM214.8 164.6c3.199 2.6 8.398 0.6 11.199-4 3.199-4.6 3.199-9.799 0-12.4-2.6-2-8 0-11.199 4.602-3.201 4.6-3.201 9.799 0 11.799z" />
<glyph unicode="&#xf09d;" glyph-name="credit-card" horiz-adv-x="1152" d="M0 32v352h1152v-352c0-53-43-96-96-96h-960c-53 0-96 43-96 96zM384 168v-80c0-13.199 10.801-24 24-24h272c13.199 0 24 10.801 24 24v80c0 13.199-10.801 24-24 24h-272c-13.199 0-24-10.801-24-24zM128 168v-80c0-13.199 10.801-24 24-24h144c13.199 0 24 10.801 24 24v80c0 13.199-10.801 24-24 24h-144c-13.199 0-24-10.801-24-24zM1152 736v-96h-1152v96c0 53 43 96 96 96h960c53 0 96-43 96-96z" />
<glyph unicode="&#xf09e;" glyph-name="rss" horiz-adv-x="896" d="M256.162 64.082c0-70.738-57.344-128.082-128.082-128.082s-128.080 57.344-128.080 128.082 57.344 128.082 128.082 128.082 128.080-57.346 128.080-128.082zM607.482-30.418c0.988-18.27-13.693-33.582-31.99-33.58h-96.139c-16.828 0-30.941 12.98-32.035 29.773-14.598 224.14-193.881 402.976-417.544 417.544-16.793 1.092-29.773 15.205-29.773 32.035v96.139c0 18.295 15.313 32.977 33.582 31.988 309.53-16.727 557.192-264.702 573.9-573.9zM895.98-30.994c0.648-18.061-13.943-33.006-32.010-33.008h-96.137c-17.252 0-31.291 13.67-31.998 30.906-15.676 382.296-322.572 689.252-704.93 704.93-17.236 0.709-30.906 14.748-30.906 31.998v96.137c0 18.068 14.945 32.66 33.006 32.012 469.924-16.871 846.186-395.334 862.974-862.974z" />
<glyph unicode="&#xf0a1;" glyph-name="bullhorn" horiz-adv-x="1152" d="M1152 416c0-47.26-25.9-88.080-64.020-110.26v-305.74c0-18.439-14.16-64-64-64-15.092 0.014-29.016 5.281-39.961 14.039l-170.059 136.061c-85.4 68.281-192.641 105.9-301.96 105.9h-56.16c-5.58-20.42-8.82-41.779-8.82-64 0-58.16 19.5-111.84 52.301-154.881 31.58-41.439 0.299-101.119-51.801-101.119h-148.559c-23.762 0-46.422 12.74-56.801 34.119-32.6 67.182-51.121 142.342-51.121 221.88 0 21.721 1.58 43.039 4.361 64h-67.4c-70.699 0-128 57.301-128 128v192c0 70.699 57.301 128 128 128h384c109.32 0 216.56 37.619 301.98 105.9l170.059 136.061c11.58 9.279 25.721 14.039 39.961 14.039 50.039 0 64-46.52 64-64.020v-305.74c38.1-22.16 64-62.98 64-110.24zM960 133.16v565.68l-66.1-52.879c-108-86.4-243.66-133.961-381.9-133.961v-192c138.24 0 273.9-47.561 381.9-133.961z" />
<glyph unicode="&#xf0a8;" glyph-name="arrow-circle-left" d="M512-112c-274 0-496 222-496 496s222 496 496 496 496-222 496-496-222-496-496-496zM569.8 175.199l-151 144.801h365.2c26.6 0 48 21.4 48 48v32c0 26.6-21.4 48-48 48h-365.2l151 144.801c19.398 18.6 19.799 49.6 0.799 68.6l-22 21.799c-18.799 18.801-49.199 18.801-67.799 0l-265.4-265.2c-18.801-18.801-18.801-49.199 0-67.801l265.4-265.398c18.799-18.801 49.199-18.801 67.799 0l22 21.799c19 19 18.6 50-0.799 68.6z" />
<glyph unicode="&#xf0a9;" glyph-name="arrow-circle-right" d="M512 880c274 0 496-222 496-496s-222-496-496-496-496 222-496 496 222 496 496 496zM454.2 592.8l151-144.801h-365.2c-26.6 0-48-21.4-48-48v-32c0-26.6 21.4-48 48-48h365.2l-151-144.801c-19.398-18.6-19.799-49.6-0.799-68.6l22-21.799c18.799-18.801 49.199-18.801 67.799 0l265.4 265.2c18.801 18.801 18.801 49.199 0 67.801l-265.4 265.6c-18.799 18.799-49.199 18.799-67.799 0l-22-21.801c-19-19.199-18.6-50.199 0.799-68.799z" />
<glyph unicode="&#xf0aa;" glyph-name="arrow-circle-up" d="M16 384c0 274 222 496 496 496s496-222 496-496-222-496-496-496-496 222-496 496zM303.2 326.2l144.801 151v-365.2c0-26.6 21.4-48 48-48h32c26.6 0 48 21.4 48 48v365.2l144.801-151c18.6-19.398 49.6-19.799 68.6-0.799l21.799 22c18.801 18.799 18.801 49.199 0 67.799l-265.2 265.4c-18.801 18.801-49.199 18.801-67.801 0l-265.6-265.4c-18.799-18.799-18.799-49.199 0-67.799l21.801-22c19.199-19 50.199-18.6 68.799 0.799z" />
<glyph unicode="&#xf0ab;" glyph-name="arrow-circle-down" d="M1008 384c0-274-222-496-496-496s-496 222-496 496 222 496 496 496 496-222 496-496zM720.8 441.8l-144.801-151v365.2c0 26.6-21.4 48-48 48h-32c-26.6 0-48-21.4-48-48v-365.2l-144.801 151c-18.6 19.398-49.6 19.799-68.6 0.799l-21.799-22c-18.801-18.799-18.801-49.199 0-67.799l265.2-265.4c18.801-18.801 49.199-18.801 67.801 0l265.398 265.4c18.801 18.799 18.801 49.199 0 67.799l-21.799 22c-19 19-50 18.6-68.6-0.799z" />
<glyph unicode="&#xf0ac;" glyph-name="globe" horiz-adv-x="992" d="M673 576h-354c29 178.6 97.4 304 177 304s148-125.4 177-304zM304 384c0 44.4 2.4 87 6.6 128h370.6c4.201-41 6.602-83.6 6.602-128s-2.4-87-6.602-128h-370.6c-4.199 41-6.6 83.6-6.6 128zM953.4 576h-216c-17.6 113.801-51.201 215.6-100 283.2 143-42.398 258.798-147.398 316-283.2zM354.4 859.2c-48.801-67.6-82.4-169.398-99.801-283.2h-216c57 135.801 173 240.8 315.8 283.2zM974.8 512c10.799-41 17-83.6 17-128s-6.201-87-17.201-128h-229.2c4.199 42 6.6 85 6.6 128s-2.4 86-6.6 128h229.4zM240 384c0-43 2.4-86 6.4-128h-229.202c-10.799 41-17.199 83.6-17.199 128s6.4 87 17.199 128h229.4c-4.199-42-6.6-85-6.6-128zM319 192h354c-29-178.6-97.4-304-177-304s-148 125.4-177 304zM637.6-91.199c48.801 67.6 82.4 169.398 100 283.2h216c-57.199-135.801-173.199-240.8-316-283.2zM38.6 192h216c17.6-113.801 51.201-215.6 100-283.2-143 42.398-258.798 147.398-316 283.2z" />
<glyph unicode="&#xf0ad;" glyph-name="wrench" d="M1015.46 677.8c23.578-94.82-1.682-199.32-75.82-273.46-79.801-79.801-194.5-101.859-294.74-68.439l-426.42-426.42c-49.98-49.98-131.020-49.98-181 0s-49.98 131.020 0 181l426.78 426.78c-33 100.201-11.18 215.122 68.1 294.4 74.061 74.039 178.4 99.34 273.16 75.859 18.18-4.52 24.561-27.080 11.32-40.32l-148.721-148.719 22.621-135.76 135.76-22.621 148.721 148.721c13.16 13.16 35.76 7.039 40.24-11.020zM128-48c26.5 0 48 21.5 48 48 0 26.52-21.5 48-48 48s-48-21.48-48-48c0-26.5 21.5-48 48-48z" />
<glyph unicode="&#xf0ae;" glyph-name="tasks" d="M279.22 825l34-33c4.266-4.361 6.898-10.336 6.898-16.912 0-6.67-2.707-12.711-7.080-17.088l-175.578-175.619c-4.586-4.359-10.799-7.035-17.617-7.035-6.82 0-13.020 2.676-17.604 7.035l-95.18 94.799c-4.361 4.348-7.063 10.365-7.063 17.004 0 6.637 2.701 12.65 7.063 16.996l31.4 31.439c4.346 4.363 10.363 7.063 17.002 7.063s12.65-2.699 16.998-7.063l45.398-44.238 127.361 126.619c4.346 4.361 10.365 7.063 17.002 7.063 6.639 0 12.65-2.701 16.998-7.063zM279.22 506.62l33.959-34c4.25-4.33 6.873-10.271 6.873-16.813 0-6.633-2.697-12.641-7.053-16.986l-175.801-175.82c-4.58-4.357-10.791-7.033-17.605-7.033-6.816 0-13.012 2.676-17.594 7.033l-94.939 95c-4.361 4.346-7.063 10.365-7.063 17.004 0 6.637 2.701 12.65 7.063 16.996l31.4 31.381c4.346 4.361 10.363 7.063 17.002 7.063s12.65-2.701 16.998-7.063l45.398-44.201 127.361 127.439c4.346 4.363 10.365 7.063 17.002 7.063 6.639 0 12.65-2.699 16.998-7.063zM128 160c52.984 0 96-43.016 96-96s-43.016-96-96-96c-52.939 0-97.18 43-97.18 96s44.199 96 97.18 96zM992 128c17.662 0 32-14.338 32-32v-64c0-17.662-14.338-32-32-32h-576c-17.662 0-32 14.338-32 32v64c0 17.662 14.338 32 32 32h576zM992 768c17.662 0 32-14.338 32-32v-64c0-17.662-14.338-32-32-32h-576c-17.662 0-32 14.338-32 32v64c0 17.662 14.338 32 32 32h576zM992 448c17.662 0 32-14.338 32-32v-64c0-17.662-14.338-32-32-32h-576c-17.662 0-32 14.338-32 32v64c0 17.662 14.338 32 32 32h576z" />
<glyph unicode="&#xf0b0;" glyph-name="filter" d="M975.952 896c42.725 0 64.092-51.793 33.943-81.941l-369.894-369.942v-524.078c0-39.025-43.961-61.42-75.525-39.322l-160 111.959c-12.832 8.984-20.475 23.662-20.475 39.324v412.118l-369.884 369.942c-30.209 30.209-8.695 81.941 33.941 81.941h927.894z" />
<glyph unicode="&#xf0b2;" glyph-name="arrows-alt" d="M704.402 44.449l-158.393-158.391c-18.746-18.746-49.137-18.746-67.881 0l-158.393 158.391c-30.238 30.238-8.822 81.943 33.941 81.941h102.324l-0.002 201.61h-201.608v-102.324c0-42.764-51.703-64.18-81.943-33.941l-158.391 158.393c-18.746 18.744-18.746 49.137 0 67.881l158.391 158.393c30.238 30.238 81.943 8.822 81.943-33.943v-102.457h201.608v201.608h-102.461c-42.764 0-64.18 51.703-33.941 81.943l158.393 158.391c18.746 18.746 49.137 18.746 67.881 0l158.393-158.391c30.238-30.238 8.822-81.943-33.941-81.943h-102.324v-201.608h201.608v102.324c0 42.764 51.703 64.18 81.941 33.941l158.391-158.393c18.746-18.744 18.746-49.137 0-67.881l-158.391-158.393c-30.238-30.238-81.943-8.822-81.941 33.943v102.457h-201.606v-201.608h102.461c42.764 0 64.18-51.703 33.941-81.943z" />
<glyph unicode="&#xf0c0;" glyph-name="users" horiz-adv-x="1280" d="M192 448c-70.6 0-128 57.4-128 128s57.4 128 128 128 128-57.4 128-128-57.4-128-128-128zM1088 448c-70.6 0-128 57.4-128 128s57.4 128 128 128 128-57.4 128-128-57.4-128-128-128zM1152 384c70.6 0 128-57.4 128-128v-64c0-35.4-28.6-64-64-64h-132c-12.4 94.801-69.6 174.6-150.199 218.8 23.199 23 55 37.199 90.199 37.199h128zM640 384c-123.801 0-224 100.199-224 224s100.199 224 224 224 224-100.199 224-224-100.199-224-224-224zM793.6 320c127.201 0 230.4-103.199 230.4-230.4v-57.6c0-53-43-96-96-96h-576c-53 0-96 43-96 96v57.6c0 127.201 103.199 230.4 230.4 230.4h16.6c41.801-20 87.801-32 137-32s95.4 12 137 32h16.6zM346.2 346.8c-80.6-44.201-137.799-124-150.398-218.8h-131.801c-35.4 0-64 28.6-64 64v64c0 70.6 57.4 128 128 128h128c35.199 0 67-14.199 90.199-37.199z" />
<glyph unicode="&#xf0c1;" glyph-name="link" d="M653.224 525.218c119.494-119.619 117.854-311.396 0.719-429.182-0.219-0.238-0.479-0.5-0.719-0.738l-134.4-134.4c-118.541-118.541-311.398-118.525-429.92 0-118.541 118.52-118.541 311.4 0 429.92l74.211 74.211c19.682 19.682 53.572 6.602 54.588-21.211 1.297-35.445 7.652-71.055 19.381-105.441 3.973-11.645 1.135-24.525-7.566-33.225l-26.174-26.174c-56.051-56.053-57.811-147.32-2.311-203.92 56.049-57.158 148.172-57.498 204.65-1.021l134.4 134.381c56.383 56.383 56.146 147.514 0 203.66-7.402 7.389-14.857 13.127-20.682 17.139-8.102 5.563-13.494 14.748-13.895 25.211-0.791 21.135 6.695 42.912 23.396 59.611l42.107 42.111c11.043 11.041 28.365 12.398 41.168 3.461 14.771-10.314 28.342-21.689 41.045-34.393zM935.094 807.102c118.541-118.52 118.541-311.4-0.002-429.918l-74.211-74.211c-19.682-19.68-53.57-6.602-54.588 21.211-1.297 35.445-7.652 71.055-19.381 105.443-3.973 11.643-1.135 24.523 7.566 33.223l26.174 26.174c56.053 56.053 57.811 147.32 2.311 203.92-56.051 57.158-148.174 57.498-204.65 1.021l-134.4-134.381c-56.383-56.383-56.146-147.514 0-203.66 7.402-7.389 14.857-13.127 20.682-17.139 8.102-5.563 13.494-14.748 13.895-25.211 0.791-21.135-6.695-42.912-23.396-59.611l-42.107-42.111c-11.041-11.039-28.365-12.398-41.168-3.461-14.771 10.313-28.34 21.689-41.043 34.391-119.494 119.619-117.852 311.396-0.719 429.182 0.219 0.238 0.479 0.5 0.719 0.738l134.4 134.4c118.541 118.541 311.398 118.525 429.92 0z" />
<glyph unicode="&#xf0c2;" glyph-name="cloud" horiz-adv-x="1280" d="M1075.2 442.8c116.801-23.602 204.8-127 204.8-250.8 0-141.4-114.6-256-256-256h-736c-159 0-288 129-288 288 0 125.6 80.4 232.4 192.4 271.8-0.201 5.398-0.4 10.799-0.4 16.199 0 176.801 143.199 320 320 320 118.6 0 222-64.4 277.4-160.4 30.4 20.4 67.199 32.4 106.6 32.4 106 0 192-86 192-192 0-24.4-4.6-47.801-12.801-69.199z" />
<glyph unicode="&#xf0c3;" glyph-name="flask" horiz-adv-x="896" d="M874.4 89c58.6-94-8.801-217-120.201-217h-612.398c-111.201 0-178.801 122.801-120.201 217l234.4 377v302h-16c-26.6 0-48 21.4-48 48v32c0 26.6 21.4 48 48 48h416c26.6 0 48-21.4 48-48v-32c0-26.6-21.4-48-48-48h-16v-302zM275.8 256h344l-96.4 155.199c-7.201 10.4-11.6 23-11.6 36.801v320h-128v-320c0-13.6-4.201-26.4-11.602-36.801z" />
<glyph unicode="&#xf0c6;" glyph-name="paperclip" horiz-adv-x="896" d="M86.492-36.283c-116.859 120.578-114.682 315.022 2.771 435.162l419.52 429.122c88.633 90.664 232.704 90.672 321.344 0 87.779-89.787 87.885-234.658 0-324.552l-365.7-373.704c-59.709-61.074-157.266-60.223-215.962 1.996-56.551 59.939-54.736 154.945 2.902 213.906l287.486 293.67c12.365 12.627 32.625 12.844 45.252 0.482l45.723-44.76c12.629-12.363 12.844-32.623 0.482-45.252l-287.458-293.64c-9.863-10.090-10.471-26.857-1.295-36.584 8.744-9.268 22.49-9.422 31.375-0.33l365.7 373.702c39.225 40.125 39.225 105.451-0.023 145.596-38.377 39.254-99.914 39.275-138.307 0l-419.524-429.12c-69.525-71.121-70.598-186.24-2.381-256.626 68.020-70.186 177.969-70.273 246.116-0.57l344.122 351.998c12.354 12.637 32.613 12.865 45.252 0.512l45.754-44.729c12.637-12.354 12.867-32.613 0.512-45.252l-344.122-351.996c-119.15-121.877-311.884-120.432-429.54 0.971z" />
<glyph unicode="&#xf0c7;" glyph-name="save" horiz-adv-x="896" d="M867.882 636.118c17.377-17.377 28.117-41.389 28.117-67.881v-536.236c0-53.020-42.98-96-96-96h-704c-53.020 0-96 42.98-96 96v704c0 53.020 42.98 96 96 96h536.236c26.492 0 50.504-10.74 67.881-28.117zM448 64c70.691 0 128 57.309 128 128s-57.309 128-128 128-128-57.309-128-128 57.309-128 128-128zM640 673.040c0 6.623-2.686 12.627-7.029 16.971l-6.961 6.961c-4.5 4.502-10.604 7.029-16.971 7.029h-457.040c-13.254 0-24-10.746-24-24v-208c0-13.254 10.746-24 24-24h464c13.254 0 24 10.746 24 24v201.040z" />
<glyph unicode="&#xf0d0;" glyph-name="magic" d="M448 704l-32 64-64 32 64 32 32 64 32-64 64-32-64-32zM160 576l-53.32 106.66-106.68 53.34 106.68 53.34 53.32 106.66 53.32-106.66 106.68-53.34-106.68-53.34zM864 320l53.32-106.66 106.68-53.34-106.68-53.34-53.32-106.66-53.32 106.66-106.68 53.34 106.68 53.34zM1005.24 707.54c25-24.979 25-65.52 0-90.479l-726.28-726.3c-12.5-12.5-28.881-18.74-45.262-18.74-16.359 0-32.738 6.24-45.238 18.74l-169.701 169.701c-25 24.979-25 65.5 0 90.5l726.28 726.28c12.5 12.52 28.881 18.76 45.262 18.76 16.379 0 32.76-6.24 45.238-18.76zM718.9 489.080l173.199 173.199-101.82 101.82-173.199-173.199z" />
<glyph unicode="&#xf0d1;" glyph-name="truck" horiz-adv-x="1280" d="M1248 192c17.6 0 32-14.4 32-32v-64c0-17.6-14.4-32-32-32h-96c0-106-86-192-192-192s-192 86-192 192h-256c0-106-86-192-192-192s-192 86-192 192h-32c-53 0-96 43-96 96v640c0 53 43 96 96 96h640c53 0 96-43 96-96v-96h88.199c25.4 0 49.801-10.199 67.801-28.199l199.801-199.801c18-18 28.199-42.4 28.199-67.801v-216.2h32zM320-32c53 0 96 43 96 96s-43 96-96 96-96-43-96-96 43-96 96-96zM960-32c53 0 96 43 96 96s-43 96-96 96-96-43-96-96 43-96 96-96zM1120 384v24.199l-199.801 199.801h-88.199v-224h288z" />
<glyph unicode="&#xf0d2;" glyph-name="pinterest" horiz-adv-x="992" d="M992 384c0-274-222-496-496-496-51.199 0-100.4 7.801-146.801 22.199 20.201 33 50.4 87 61.602 130 6 23.201 30.799 118 30.799 118 16.201-30.799 63.4-57 113.6-57 149.602 0 257.4 137.602 257.4 308.602 0 163.799-133.799 286.398-305.798 286.398-214 0-327.8-143.6-327.8-300.2 0-72.801 38.801-163.4 100.6-192.199 9.4-4.4 14.4-2.4 16.6 6.6 1.602 6.799 10 40.6 13.801 56.199 1.199 5 0.6 9.4-3.4 14.201-20.199 25-36.6 70.6-36.6 113.199 0 109.4 82.801 215.2 224 215.2 121.801 0 207.2-83 207.2-201.798 0-134.201-67.799-227.202-156-227.202-48.6 0-85.199 40.201-73.398 89.602 14 59 41 122.6 41 165.199 0 38-20.4 69.801-62.801 69.801-49.801 0-89.801-51.4-89.801-120.4 0-44 14.801-73.6 14.801-73.6s-49-207.602-58-246.4c-10-42.801-6-103.201-1.801-142.4-184.398 72.199-315.2 251.8-315.2 462 0 274 222 496 496 496s496-222 496-496z" />
<glyph unicode="&#xf0d6;" glyph-name="money-bill" horiz-adv-x="1280" d="M1216 768c35.34 0 64-28.66 64-64v-640c0-35.34-28.66-64-64-64h-1152c-35.34 0-64 28.66-64 64v640c0 35.34 28.66 64 64 64h1152zM96 96h128c0 70.699-57.301 128-128 128v-128zM96 544c70.699 0 128 57.301 128 128h-128v-128zM640 192c88.34 0 160 85.939 160 192 0 106.039-71.641 192-160 192s-160-85.961-160-192c0-106.020 71.619-192 160-192zM1184 96v128c-70.699 0-128-57.301-128-128h128zM1184 544v128h-128c0-70.699 57.301-128 128-128z" />
<glyph unicode="&#xf0d7;" glyph-name="caret-down" horiz-adv-x="640" d="M62.6 512h514.6c35.602 0 53.4-43 28.201-68.199l-257.202-257.4c-15.6-15.6-41-15.6-56.6 0l-257.2 257.4c-25.201 25.199-7.4 68.199 28.199 68.199z" />
<glyph unicode="&#xf0d8;" glyph-name="caret-up" horiz-adv-x="640" d="M577.324 192h-514.648c-35.637 0-53.482 43.086-28.283 68.283l257.324 257.324c15.619 15.621 40.947 15.621 56.566 0l257.324-257.324c25.201-25.197 7.354-68.283-28.283-68.283z" />
<glyph unicode="&#xf0d9;" glyph-name="caret-left" horiz-adv-x="384" d="M384 641.324v-514.648c0-35.637-43.086-53.482-68.283-28.283l-257.324 257.324c-15.621 15.619-15.621 40.947 0 56.566l257.324 257.324c25.197 25.201 68.283 7.354 68.283-28.283z" />
<glyph unicode="&#xf0da;" glyph-name="caret-right" horiz-adv-x="384" d="M0 126.676v514.648c0 35.637 43.086 53.482 68.283 28.283l257.324-257.324c15.621-15.619 15.621-40.947 0-56.566l-257.324-257.324c-25.197-25.201-68.283-7.354-68.283 28.283z" />
<glyph unicode="&#xf0db;" glyph-name="columns" d="M928 832c53.020 0 96-42.98 96-96v-704c0-53.020-42.98-96-96-96h-832c-53.020 0-96 42.98-96 96v704c0 53.020 42.98 96 96 96h832zM448 64v512h-320v-512h320zM896 64v512h-320v-512h320z" />
<glyph unicode="&#xf0dc;" glyph-name="sort" horiz-adv-x="640" d="M82 320h476c42.801 0 64.199-51.801 34-82l-238-238c-18.801-18.801-49.199-18.801-67.801 0l-238.2 238c-30.199 30.199-8.801 82 34 82zM592 530c30.199-30.199 8.801-82-34-82h-476c-42.801 0-64.199 51.801-34 82l238.2 238c18.602 18.801 49 18.801 67.801 0z" />
<glyph unicode="&#xf0dd;" glyph-name="sort-down" horiz-adv-x="640" d="M82 320h476c42.801 0 64.199-51.801 34-82l-238-238c-18.801-18.801-49.199-18.801-67.801 0l-238.2 238c-30.199 30.199-8.801 82 34 82z" />
<glyph unicode="&#xf0de;" glyph-name="sort-up" horiz-adv-x="640" d="M558 448h-476c-42.801 0-64.199 51.801-34 82l238 238c18.801 18.801 49.199 18.801 67.801 0l238-238c30.398-30.199 9-82-33.801-82z" />
<glyph unicode="&#xf0e0;" glyph-name="envelope" d="M1004.6 514.4c7.801 6.199 19.4 0.4 19.4-9.4v-409c0-53-43-96-96-96h-832c-53 0-96 43-96 96v408.8c0 10 11.4 15.6 19.4 9.398 44.799-34.799 104.199-79 308.2-227.2 42.201-30.801 113.4-95.6 184.4-95.199 71.4-0.602 144 65.6 184.6 95.199 204 148.199 263.202 192.6 308 227.4zM512 256c-46.4-0.801-113.199 58.4-146.801 82.801-265.398 192.6-285.6 209.6-346.798 257.398-11.6 9.201-18.4 23-18.4 37.801v38c0 53 43 96 96 96h832c53 0 96-43 96-96v-38c0-14.801-6.801-28.801-18.4-37.801-61.199-48-81.4-64.799-346.798-257.398-33.602-24.4-100.4-83.602-146.801-82.801z" />
<glyph unicode="&#xf0e2;" glyph-name="undo" d="M424.666 447.334h-400.666c-13.254 0-24 10.746-24 24v400.666c0 13.254 10.746 24 24 24h96c13.254 0 24-10.746 24-24v-156.225c91.547 101.666 224.52 165.285 372.35 164.211 273.812-1.988 492.896-223.246 492.314-497.064-0.582-273.438-222.424-494.922-495.998-494.922-128.178 0-244.992 48.627-333.020 128.43-10.199 9.244-10.668 25.107-0.934 34.84l67.934 67.934c8.947 8.949 23.324 9.436 32.801 1.051 62.072-54.926 143.713-88.254 233.218-88.254 194.535 0 352 157.432 352 352 0 194.533-157.432 352-352 352-116.992 0-220.56-56.951-284.548-144.666h196.549c13.254 0 24-10.746 24-24v-96c0-13.254-10.746-24-24-24z" />
<glyph unicode="&#xf0e7;" glyph-name="bolt" horiz-adv-x="640" d="M592 576c37 0 60-40.199 41.4-72l-352-608c-8.801-15.199-24.801-24-41.6-24-30.602 0-53.801 28.6-46.602 59l92.201 389h-237.4c-29 0-51.4 25.6-47.6 54.4l64 480c3.199 23.799 23.6 41.6 47.6 41.6h288c31.4 0 54.4-30 46.4-60.4l-85.201-259.6h230.8z" />
<glyph unicode="&#xf0e9;" glyph-name="umbrella" horiz-adv-x="1152" d="M1151.4 334.4c4.4-20.201-16.801-42.801-37.4-22.801-103 108.801-215.2 105-317.2-74-10.602-19-29.801-17.199-39.4 0-5 8.801-64.4 146.4-181.4 146.4-91.6 0-141-75.6-181.4-146.4-9.6-17.199-28.799-19-39.4 0-101.799 178.801-213.2 184-317.2 74-20.4-19.799-41.801 2.6-37.4 22.801 58.4 272.6 276 436.4 511.4 461.798v35.801c0 35.4 28.6 64 64 64s64-28.6 64-64v-35.801c234.6-25.398 454.2-189.199 511.4-461.798zM512 292.6c19.199 17.801 39.4 27.201 64 27.4 24.4 0 45.801-11.4 64-27.199v-260.602c0-88.199-71.801-160-160-160-67.6 0-128.4 42.801-150.801 106.602-11.799 33.199 5.602 69.799 39 81.6 33.4 11.799 69.801-5.6 81.602-39 3.799-10.801 14.6-21.4 30.199-21.4 17.6 0 32 14.4 32 32v260.6z" />
<glyph unicode="&#xf0eb;" glyph-name="lightbulb" horiz-adv-x="704" d="M192.119-12.699l-0.1 76.699h319.96l-0.080-76.699c-0.016-13.053-3.984-25.262-10.721-35.381l-34.18-51.381c-11.465-17.246-31.035-28.559-53.279-28.559h-123.42c-22.246 0-41.814 11.313-53.281 28.559l-34.18 51.381c-6.98 10.48-10.699 22.801-10.721 35.381zM0 544c0 186.061 146.881 351.38 350.9 352 194.92 0.6 353.1-157.221 353.1-352 0-88.74-32.9-169.699-87.119-231.56-33.041-37.699-84.721-116.459-104.42-182.9-0.080-0.539-0.141-1.039-0.221-1.559h-320.48c-0.080 0.52-0.141 1.039-0.221 1.559-19.699 66.441-71.379 145.201-104.42 182.9-54.219 61.861-87.119 142.82-87.119 231.56zM352 704c17.68 0 32 14.32 32 32s-14.32 32-32 32c-123.52 0-224-100.48-224-224 0-17.68 14.32-32 32-32s32 14.32 32 32c0 88.221 71.779 160 160 160z" />
<glyph unicode="&#xf0f3;" glyph-name="bell" horiz-adv-x="896" d="M448-128c-70.641 0-127.939 57.301-127.939 128h255.878c0-70.699-57.299-128-127.939-128zM878.78 171.42c12-12.881 17.32-28.32 17.221-43.42-0.199-32.801-25.961-64-64.199-64h-767.602c-38.238 0-63.979 31.199-64.199 64-0.1 15.1 5.221 30.52 17.221 43.42 38.639 41.52 110.939 103.98 110.939 308.58 0 155.4 108.959 279.8 255.878 310.32v41.68c0 35.34 28.641 64 63.961 64s63.961-28.66 63.961-64v-41.68c146.92-30.52 255.878-154.92 255.878-310.32 0-204.6 72.301-267.060 110.939-308.58z" />
<glyph unicode="&#xf0f4;" glyph-name="coffee" horiz-adv-x="1280" d="M384 128c-106 0-192 86-192 192v464c0 26.6 21.4 48 48 48h784c141.199 0 256-114.801 256-256s-114.801-256-256-256h-64c0-106-86-192-192-192h-384zM1024 704h-64v-256h64c70.6 0 128 57.4 128 128s-57.4 128-128 128zM1119.4-64h-1022.8c-95.199 0-122 128-72 128h1166.6c50 0 23.602-128-71.799-128z" />
<glyph unicode="&#xf100;" glyph-name="angle-double-left" horiz-adv-x="896" d="M447.4 418l272 272c18.799 18.801 49.199 18.801 67.799 0l45.201-45.199c18.799-18.801 18.799-49.201 0-67.801l-192.6-193 192.799-192.801c18.801-18.799 18.801-49.199 0-67.799l-45.199-45.4c-18.801-18.801-49.201-18.801-67.801 0l-272 272c-19 18.801-19 49.199-0.199 68zM63.4 350c-18.801 18.801-18.801 49.199 0.199 68l272 272c18.6 18.801 49 18.801 67.801 0l45.199-45.4c18.801-18.6 18.801-49 0-67.799l-192.799-192.801 192.6-193c18.799-18.6 18.799-49 0-67.801l-45.201-45.199c-18.6-18.801-49-18.801-67.799 0z" />
<glyph unicode="&#xf101;" glyph-name="angle-double-right" horiz-adv-x="896" d="M448.6 350l-272-272c-18.799-18.801-49.199-18.801-67.799 0l-45.201 45.199c-18.799 18.801-18.799 49.201 0 67.801l192.801 192.801-192.801 192.799c-18.799 18.801-18.799 49.201 0 67.801l45 45.6c18.801 18.801 49.201 18.801 67.801 0l272-272c19-18.801 19-49.199 0.199-68zM832.6 418c18.801-18.801 18.801-49.199 0-67.6l-272-272c-18.6-18.801-49-18.801-67.799 0l-45.201 45.199c-18.799 18.6-18.799 49 0 67.801l192.801 192.799-192.801 192.801c-18.799 18.6-18.799 49 0 67.801l45.201 45.199c18.6 18.801 49 18.801 67.799 0z" />
<glyph unicode="&#xf102;" glyph-name="angle-double-up" horiz-adv-x="640" d="M354 384.6l272-272c18.801-18.799 18.801-49.199 0-67.799l-45.199-45.201c-18.801-18.799-49.201-18.799-67.801 0l-193 192.6-192.801-192.799c-18.799-18.801-49.199-18.801-67.799 0l-45.4 45.199c-18.801 18.801-18.801 49.201 0 67.801l272 272c18.801 19 49.199 19 68 0.199zM286 768.6c18.801 18.801 49.199 18.801 67.6 0l272-272c18.801-18.6 18.801-49 0-67.799l-45.199-45.201c-18.6-18.799-49-18.799-67.801 0l-192.799 192.801-192.801-192.801c-18.6-18.799-49-18.799-67.801 0l-45.199 45.201c-18.801 18.6-18.801 49 0 67.799z" />
<glyph unicode="&#xf103;" glyph-name="angle-double-down" horiz-adv-x="640" d="M286 383.4l-272 272c-18.801 18.799-18.801 49.199 0 67.799l45.199 45.201c18.801 18.799 49.201 18.799 67.801 0l192.801-192.801 192.799 192.801c18.801 18.799 49.201 18.799 67.801 0l45.6-45c18.801-18.801 18.801-49.201 0-67.801l-272-272c-18.801-19-49.199-19-68-0.199zM354-0.6c-18.801-18.801-49.199-18.801-68 0.199l-272 272c-18.801 18.6-18.801 49 0 67.801l45.4 45.199c18.6 18.801 49 18.801 67.799 0l192.801-192.799 193 192.6c18.6 18.799 49 18.799 67.801 0l45.199-45.201c18.801-18.6 18.801-49 0-67.799z" />
<glyph unicode="&#xf104;" glyph-name="angle-left" horiz-adv-x="512" d="M63.4 418l272 272c18.799 18.801 49.199 18.801 67.799 0l45.201-45.199c18.799-18.801 18.799-49.201 0-67.801l-192.6-193 192.799-192.801c18.801-18.799 18.801-49.199 0-67.799l-45.199-45.4c-18.801-18.801-49.201-18.801-67.801 0l-272 272c-19 18.801-19 49.199-0.199 68z" />
<glyph unicode="&#xf105;" glyph-name="angle-right" horiz-adv-x="512" d="M448.6 350l-272-272c-18.799-18.801-49.199-18.801-67.799 0l-45.201 45.199c-18.799 18.801-18.799 49.201 0 67.801l192.801 192.801-192.801 192.799c-18.799 18.801-18.799 49.201 0 67.801l45 45.6c18.801 18.801 49.201 18.801 67.801 0l272-272c19-18.801 19-49.199 0.199-68z" />
<glyph unicode="&#xf106;" glyph-name="angle-up" horiz-adv-x="640" d="M354 576.6l272-272c18.801-18.799 18.801-49.199 0-67.799l-45.199-45.201c-18.801-18.799-49.201-18.799-67.801 0l-193 192.6-192.801-192.799c-18.799-18.801-49.199-18.801-67.799 0l-45.4 45.199c-18.801 18.801-18.801 49.201 0 67.801l272 272c18.801 19 49.199 19 68 0.199z" />
<glyph unicode="&#xf107;" glyph-name="angle-down" horiz-adv-x="640" d="M286 191.4l-272 272c-18.801 18.799-18.801 49.199 0 67.799l45.199 45.201c18.801 18.799 49.201 18.799 67.801 0l192.801-192.801 192.799 192.801c18.801 18.799 49.201 18.799 67.801 0l45.199-45.201c18.801-18.799 18.801-49.199 0-67.799l-272-272c-18.4-18.801-48.799-18.801-67.6 0z" />
<glyph unicode="&#xf108;" glyph-name="desktop" horiz-adv-x="1152" d="M1056 896c53 0 96-43 96-96v-640c0-53-43-96-96-96h-384l32-96h144c26.6 0 48-21.4 48-48s-21.4-48-48-48h-544c-26.6 0-48 21.4-48 48s21.4 48 48 48h144l32 96h-384c-53 0-96 43-96 96v640c0 53 43 96 96 96h960zM1024 192v576h-896v-576h896z" />
<glyph unicode="&#xf109;" glyph-name="laptop" horiz-adv-x="1280" d="M1248 64c17.6 0 32-14.4 32-32v-32c0-70.4-57.6-128-128-128h-1024c-70.4 0-128 57.6-128 128v32c0 17.6 14.4 32 32 32h478.46c-0.5-29.061 28.158-64 65.539-64h121.6c36.061 0 64 24.381 65.48 64h484.92zM1152 800v-672h-1024v672c0 52.801 43.199 96 96 96h832c52.801 0 96-43.199 96-96zM1024 256v512h-768v-512h768z" />
<glyph unicode="&#xf10a;" glyph-name="tablet" horiz-adv-x="896" d="M800 896c53 0 96-43 96-96v-832c0-53-43-96-96-96h-704c-53 0-96 43-96 96v832c0 53 43 96 96 96h704zM448-64c35.4 0 64 28.6 64 64s-28.6 64-64 64-64-28.6-64-64 28.6-64 64-64z" />
<glyph unicode="&#xf10b;" glyph-name="mobile" horiz-adv-x="640" d="M544 896c53 0 96-43 96-96v-832c0-53-43-96-96-96h-448c-53 0-96 43-96 96v832c0 53 43 96 96 96h448zM320-64c35.4 0 64 28.6 64 64s-28.6 64-64 64-64-28.6-64-64 28.6-64 64-64z" />
<glyph unicode="&#xf10d;" glyph-name="quote-left" d="M928 384c53 0 96-43 96-96v-256c0-53-43-96-96-96h-256c-53 0-96 43-96 96v480c0 176.801 143.199 320 320 320h16c26.6 0 48-21.4 48-48v-96c0-26.6-21.4-48-48-48h-16c-70.6 0-128-57.4-128-128v-128h160zM352 384c53 0 96-43 96-96v-256c0-53-43-96-96-96h-256c-53 0-96 43-96 96v480c0 176.801 143.199 320 320 320h16c26.6 0 48-21.4 48-48v-96c0-26.6-21.4-48-48-48h-16c-70.6 0-128-57.4-128-128v-128h160z" />
<glyph unicode="&#xf10e;" glyph-name="quote-right" d="M928 832c53 0 96-43 96-96v-480c0-176.801-143.199-320-320-320h-16c-26.6 0-48 21.4-48 48v96c0 26.6 21.4 48 48 48h16c70.6 0 128 57.4 128 128v128h-160c-53 0-96 43-96 96v256c0 53 43 96 96 96h256zM352 832c53 0 96-43 96-96v-480c0-176.801-143.199-320-320-320h-16c-26.6 0-48 21.4-48 48v96c0 26.6 21.4 48 48 48h16c70.6 0 128 57.4 128 128v128h-160c-53 0-96 43-96 96v256c0 53 43 96 96 96h256z" />
<glyph unicode="&#xf118;" glyph-name="smile" horiz-adv-x="992" d="M496 880c274 0 496-222 496-496s-222-496-496-496-496 222-496 496 222 496 496 496zM656 544c-35.4 0-64-28.6-64-64s28.6-64 64-64 64 28.6 64 64-28.6 64-64 64zM336 544c-35.4 0-64-28.6-64-64s28.6-64 64-64 64 28.6 64 64-28.6 64-64 64zM725.6 203.6c27 32.6-22.4 73.4-49.199 41-44.801-53.6-110.4-84.4-180.4-84.4s-135.6 30.602-180.4 84.4c-27.199 32.4-76.4-8.4-49.199-41 57-68.4 140.6-107.6 229.6-107.6s172.6 39.199 229.6 107.6z" />
<glyph unicode="&#xf119;" glyph-name="frown" horiz-adv-x="992" d="M496 880c274 0 496-222 496-496s-222-496-496-496-496 222-496 496 222 496 496 496zM656 544c-35.4 0-64-28.6-64-64s28.6-64 64-64 64 28.6 64 64-28.6 64-64 64zM336 544c-35.4 0-64-28.6-64-64s28.6-64 64-64 64 28.6 64 64-28.6 64-64 64zM676.4 107.6c27-32.6 76.199 8.4 49 40.801-56.801 68.4-140.6 107.6-229.4 107.6s-172.6-39.199-229.6-107.4c-27-32.6 22.199-73.6 49.199-41 44.801 53.6 110.6 84.4 180.4 84.4s135.6-30.801 180.4-84.4z" />
<glyph unicode="&#xf11a;" glyph-name="meh" horiz-adv-x="992" d="M496 880c274 0 496-222 496-496s-222-496-496-496-496 222-496 496 222 496 496 496zM336 544c-35.4 0-64-28.6-64-64s28.6-64 64-64 64 28.6 64 64-28.6 64-64 64zM688 160c42.4 0 42.4 64 0 64h-384c-42.4 0-42.4-64 0-64h384zM656 416c35.4 0 64 28.6 64 64s-28.6 64-64 64-64-28.6-64-64 28.6-64 64-64z" />
<glyph unicode="&#xf120;" glyph-name="terminal" horiz-adv-x="1280" d="M515.962 350.058l-388.688-388.688c-18.746-18.744-49.137-18.744-67.881 0l-45.336 45.334c-18.715 18.715-18.75 49.045-0.080 67.803l308.042 309.492-308.042 309.49c-18.67 18.758-18.635 49.088 0.080 67.803l45.334 45.334c18.746 18.744 49.137 18.744 67.881 0l388.688-388.688c18.744-18.744 18.744-49.135 0-67.881zM1280-16c0-26.51-21.49-48-48-48h-608c-26.51 0-48 21.49-48 48v64c0 26.51 21.49 48 48 48h608c26.51 0 48-21.49 48-48v-64z" />
<glyph unicode="&#xf121;" glyph-name="code" horiz-adv-x="1280" d="M557.8-127l-122 35.4c-12.801 3.6-20 17-16.4 29.799l273 940.4c3.6 12.801 17 20 29.799 16.4l122-35.4c12.801-3.6 20-17 16.4-29.799l-273-940.4c-3.799-12.801-17-20.201-29.799-16.4zM329.8 97.4c-9-9.801-24.201-10.201-34-1l-288.202 270.2c-10.199 9.4-10.199 25.6 0 35l288.202 270c9.799 9.201 25 8.6 34-1l87-92.799c9.398-9.801 8.6-25.4-1.602-34.4l-181.199-159.4 181.199-159.4c10.201-9 10.801-24.6 1.602-34.4zM984.2 96.199c-9.799-9-25-8.6-34 1.201l-87 92.799c-9.398 9.801-8.6 25.4 1.602 34.4l181.199 159.4-181.199 159.6c-10.201 9-10.801 24.6-1.602 34.4l87 92.801c9.201 9.6 24.4 10 34 1l288.202-270.4c10.199-9.4 10.199-25.6 0-35z" />
<glyph unicode="&#xf128;" glyph-name="question" horiz-adv-x="768" d="M404.042 896c169.762 0 350.964-132.512 350.962-307.2 0-231.964-250.536-235.536-250.536-321.254v-11.547c0-26.51-21.49-48-48-48h-144.943c-26.51 0-48 21.49-48 48v19.576c0 123.658 93.752 173.090 164.6 212.81 60.752 34.059 97.984 57.223 97.984 102.328 0 59.664-76.104 99.262-137.631 99.262-78.254 0-115.416-36.137-165.514-98.898-16.242-20.348-45.762-24.025-66.506-8.297l-86.277 65.418c-20.541 15.576-25.082 44.588-10.355 65.748 81.178 116.646 184.576 182.053 344.214 182.053zM384 149.082c76.393 0 138.543-62.148 138.543-138.539 0-76.393-62.15-138.543-138.543-138.543s-138.543 62.15-138.543 138.539c0 76.393 62.15 138.543 138.543 138.543z" />
<glyph unicode="&#xf129;" glyph-name="info" horiz-adv-x="384" d="M40 47.543h40v288.914h-40c-22.092 0-40 17.908-40 40v95.543c0 22.092 17.908 40 40 40h224c22.092 0 40-17.908 40-40v-424.458h40c22.092 0 40-17.908 40-40v-95.543c0-22.092-17.908-40-40-40h-304c-22.092 0-40 17.908-40 40v95.543c0 22.092 17.908 40 40 40zM192 896c79.527 0 144-64.471 144-144s-64.471-144-144-144-144 64.471-144 144 64.471 144 144 144z" />
<glyph unicode="&#xf12a;" glyph-name="exclamation" horiz-adv-x="384" d="M352 32c0-88.225-71.775-160-160-160s-160 71.775-160 160 71.775 160 160 160 160-71.775 160-160zM50.52 845.602c-1.369 27.418 20.488 50.398 47.941 50.398h187.078c27.453 0 49.311-22.98 47.941-50.398l-27.201-544c-1.277-25.545-22.361-45.602-47.939-45.602h-132.68c-25.578 0-46.662 20.057-47.939 45.602z" />
<glyph unicode="&#xf13d;" glyph-name="anchor" horiz-adv-x="1152" d="M25.941 192c-21.381 0-32.090 25.852-16.971 40.971l134.057 134.057c9.375 9.373 24.57 9.373 33.943 0l134.057-134.057c15.121-15.119 4.412-40.971-16.969-40.971h-70.293c40.594-108.672 170.363-173.232 288.234-188.029v380.030h-104c-13.254 0-24 10.746-24 24v80c0 13.254 10.746 24 24 24h104v10.939c-74.568 26.361-128 97.465-128 181.061 0 106.949 87.445 193.479 194.74 191.98 104.471-1.457 189.27-87.525 189.258-192.004-0.010-83.586-53.438-154.68-128-181.037v-10.939h104c13.254 0 24-10.746 24-24v-80c0-13.254-10.746-24-24-24h-104v-380.030c118.309 14.854 247.654 79.395 288.234 188.029h-70.293c-21.381 0-32.090 25.85-16.969 40.971l134.057 134.057c9.375 9.373 24.57 9.373 33.943 0l134.057-134.057c15.121-15.119 4.412-40.971-16.969-40.971h-64.789c-43.564-205.24-272.812-320-485.27-320-212.112 0-441.656 114.529-485.27 320h-64.789zM576 768c-35.289 0-64-28.711-64-64s28.711-64 64-64 64 28.711 64 64-28.711 64-64 64z" />
<glyph unicode="&#xf13e;" glyph-name="unlock-alt" horiz-adv-x="896" d="M800 384c53 0 96-43 96-96v-320c0-53-43-96-96-96h-704c-53 0-96 43-96 96v320c0 53 43 96 96 96h48v205c0 168 135 306.4 303 307s305-136 305-304v-32c0-26.6-21.4-48-48-48h-64c-26.6 0-48 21.4-48 48v32c0 79.801-65.4 144.801-145.4 144-79.199-0.801-142.6-66.6-142.6-145.801v-206.2h496zM528 80v96c0 44.199-35.801 80-80 80s-80-35.801-80-80v-96c0-44.199 35.801-80 80-80s80 35.801 80 80z" />
<glyph unicode="&#xf141;" glyph-name="ellipsis-h" d="M656 384c0-79.6-64.4-144-144-144s-144 64.4-144 144 64.4 144 144 144 144-64.4 144-144zM864 528c79.6 0 144-64.4 144-144s-64.4-144-144-144-144 64.4-144 144 64.4 144 144 144zM160 528c79.6 0 144-64.4 144-144s-64.4-144-144-144-144 64.4-144 144 64.4 144 144 144z" />
<glyph unicode="&#xf142;" glyph-name="ellipsis-v" horiz-adv-x="384" d="M192 528c79.6 0 144-64.4 144-144s-64.4-144-144-144-144 64.4-144 144 64.4 144 144 144zM48 736c0 79.6 64.4 144 144 144s144-64.4 144-144-64.4-144-144-144-144 64.4-144 144zM48 32c0 79.6 64.4 144 144 144s144-64.4 144-144-64.4-144-144-144-144 64.4-144 144z" />
<glyph unicode="&#xf14e;" glyph-name="compass" horiz-adv-x="992" d="M450.76 429.26c24.98 24.98 65.5 24.98 90.5 0s25-65.5 0-90.5c-24.98-25-65.52-25-90.5 0-25 24.98-25 65.5 0 90.5zM496 880c273.94 0 496-222.060 496-496s-222.060-496-496-496-496 222.060-496 496 222.060 496 496 496zM748.28 583.9c15.221 33.299-19.080 67.6-52.379 52.4l-288.68-131.941c-13.969-6.385-25.156-17.57-31.541-31.539l-131.959-288.702c-15.221-33.299 19.1-67.619 52.398-52.398l288.682 131.939c13.967 6.385 25.154 17.572 31.539 31.539z" />
<glyph unicode="&#xf15b;" glyph-name="file" horiz-adv-x="768" d="M448 624c0-26.4 21.6-48 48-48h272v-656c0-26.6-21.4-48-48-48h-672c-26.6 0-48 21.4-48 48v928c0 26.6 21.4 48 48 48h400v-272zM768 652.2v-12.199h-256v256h12.199c12.801 0 25-5 34-14l195.801-196c9-9 14-21.199 14-33.801z" />
<glyph unicode="&#xf15c;" glyph-name="file-alt" horiz-adv-x="768" d="M448 624c0-26.4 21.6-48 48-48h272v-656c0-26.6-21.4-48-48-48h-672c-26.6 0-48 21.4-48 48v928c0 26.6 21.4 48 48 48h400v-272zM576 152v16c0 13.199-10.801 24-24 24h-336c-13.199 0-24-10.801-24-24v-16c0-13.199 10.801-24 24-24h336c13.199 0 24 10.801 24 24zM576 280v16c0 13.199-10.801 24-24 24h-336c-13.199 0-24-10.801-24-24v-16c0-13.199 10.801-24 24-24h336c13.199 0 24 10.801 24 24zM576 424c0 13.199-10.801 24-24 24h-336c-13.199 0-24-10.801-24-24v-16c0-13.199 10.801-24 24-24h336c13.199 0 24 10.801 24 24v16zM768 652.2v-12.199h-256v256h12.199c12.801 0 25-5 34-14l195.801-196c9-9 14-21.199 14-33.801z" />
<glyph unicode="&#xf164;" glyph-name="thumbs-up" d="M208 448c26.51 0 48-21.49 48-48v-480c0-26.51-21.49-48-48-48h-160c-26.51 0-48 21.49-48 48v480c0 26.51 21.49 48 48 48h160zM128-48c26.51 0 48 21.49 48 48s-21.49 48-48 48-48-21.49-48-48 21.49-48 48-48zM768 733.096c0-84.832-51.939-132.416-66.555-189.096h203.448c66.793 0 118.793-55.492 119.105-116.195 0.168-35.877-15.092-74.498-38.879-98.395l-0.219-0.221c19.672-46.674 16.473-112.074-18.617-158.938 17.363-51.789-0.137-115.408-32.764-149.514 8.596-35.195 4.488-65.15-12.295-89.264-40.82-58.648-141.992-59.475-227.546-59.475l-5.689 0.002c-96.574 0.033-175.611 35.195-239.122 63.449-31.914 14.199-73.641 31.775-105.301 32.357-13.080 0.24-23.566 10.914-23.566 23.996v427.54c0 6.4 2.564 12.543 7.115 17.043 79.229 78.287 113.297 161.174 178.234 226.22 29.607 29.664 40.377 74.473 50.787 117.805 8.893 37.002 27.498 115.588 67.863 115.588 48 0 144-16 144-162.904z" />
<glyph unicode="&#xf165;" glyph-name="thumbs-down" d="M0 784c0 26.51 21.49 48 48 48h160c26.51 0 48-21.49 48-48v-480c0-26.51-21.49-48-48-48h-160c-26.51 0-48 21.49-48 48v480zM80 384c0-26.51 21.49-48 48-48s48 21.49 48 48-21.49 48-48 48-48-21.49-48-48zM624-128c-40.365 0-58.971 78.586-67.861 115.59-10.412 43.332-21.178 88.141-50.787 117.805-64.938 65.047-99.006 147.934-178.234 226.22-4.395 4.346-7.115 10.381-7.115 17.043v427.54c0 13.082 10.486 23.756 23.566 23.996 31.662 0.58 73.387 18.158 105.301 32.357 63.51 28.254 142.549 63.416 239.122 63.449h5.688c85.555 0 186.727-0.826 227.548-59.475 16.783-24.113 20.891-54.068 12.295-89.264 32.625-34.105 50.127-97.727 32.764-149.514 35.088-46.863 38.287-112.264 18.617-158.938l0.219-0.221c23.787-23.898 39.047-62.518 38.879-98.395-0.313-60.703-52.314-116.195-119.105-116.195h-203.45c14.615-56.68 66.555-104.264 66.555-189.096 0-146.904-96-162.904-144-162.904z" />
<glyph unicode="&#xf167;" glyph-name="youtube" horiz-adv-x="1152" d="M1099.31 647.834c22.824-85.734 22.824-264.61 22.824-264.61s0-178.877-22.824-264.612c-12.563-47.299-49.574-83-96.568-95.641-85.182-22.973-426.742-22.973-426.742-22.973s-341.56 0-426.742 22.973c-46.994 12.641-84.006 48.342-96.568 95.641-22.824 85.734-22.824 264.612-22.824 264.612s0 178.875 22.824 264.61c12.563 47.301 49.574 84.551 96.568 97.193 85.182 22.973 426.742 22.973 426.742 22.973s341.562 0 426.742-22.973c46.994-12.641 84.006-49.893 96.568-97.193zM464.29 220.818l285.478 162.402-285.478 162.41v-324.812z" />
<glyph unicode="&#xf16c;" glyph-name="stack-overflow" horiz-adv-x="768" d="M581.4 274l-16.4-78-391.4 82 16.4 78.6zM683.4 448l-51-61.6-307 256.6 51 61.6zM621 368.6l-33.6-72.6-362.4 169 33.4 73zM524 832l238.6-320.6-64-48-238.6 320.6zM565 176v-79.4h-400v79.4h400zM644.4 16v240h80v-320h-719v320h80v-240h559z" />
<glyph unicode="&#xf16d;" glyph-name="instagram" d="M448.2 614c127.201 0 229.8-102.6 229.8-229.8s-102.6-229.798-229.8-229.798c-127.199 0-229.798 102.6-229.798 229.798 0 127.201 102.6 229.8 229.798 229.8zM448.2 234.8c82.201 0 149.4 67 149.4 149.398 0 82.4-67 149.4-149.4 149.4-82.398 0-149.398-67-149.398-149.4 0-82.398 67.199-149.398 149.398-149.398zM741 623.4c0-29.801-24-53.6-53.6-53.6-29.801 0-53.6 24-53.6 53.6s24 53.6 53.6 53.6 53.6-24 53.6-53.6zM893.2 569c4.201-74 4.201-295.6 0-369.6-3.6-71.801-20-135.4-72.398-187.801-52.4-52.6-116-69-187.801-72.4-74-4.199-295.8-4.199-369.8 0-71.799 3.602-135.199 20-187.799 72.4s-69 116-72.4 187.801c-4.199 74-4.199 295.798 0 369.798 3.6 71.801 19.801 135.4 72.4 187.801s116.199 68.801 187.799 72.199c74 4.201 295.8 4.201 369.8 0 71.801-3.6 135.4-20 187.801-72.398 52.6-52.4 69-116 72.398-187.801zM797.6 120c23.4 58.801 18 199 18 264.2s5.4 205.202-18 264.202c-15.799 39.4-46 69.6-85.199 85.199-58.801 23.201-199 18-264.202 18-65.199 0-205.2 5.4-264.2-18-39.4-15.799-69.6-46-85.199-85.199-23.201-58.801-18-199-18-264.202 0-65.199-5.4-205.2 18-264.2 15.799-39.4 46-69.6 85.199-85.199 58.801-23.201 199-18 264.2-18s205.202-5.4 264.202 18c39.4 15.799 69.6 46 85.199 85.199z" />
<glyph unicode="&#xf179;" glyph-name="apple" horiz-adv-x="768" d="M637.4 358.6c0-3.799-7-122.4 123.4-183.799-24.4-73.602-108-237.202-205.202-238.602-56.199 0-89.199 35.801-152.799 35.801-65.602 0-101.201-34.6-151.602-35.801-96.398-3-188.799 177-214.398 250.4-19.201 55.867-28.801 110-28.801 162.4 0 177.4 118.6 264.6 230.2 266.4 54 0 122.801-39.4 152.801-39.4 28.4 0 106 47 177 41.4 75-5.801 131.801-35.4 169.4-89.201-67.201-40.799-100.4-96.199-100-169.6zM524.2 687c-39.199-45.801-86.799-72.6-139-68.6-4.398 55.199 16.201 104.199 51.201 143.799 31.799 37 87.6 67 135.799 69.801 1.602-21.199 6.602-80.199-48-145z" />
<glyph unicode="&#xf17a;" glyph-name="windows" d="M0 708.6l367.2 50.6v-354.798h-367.2v304.2zM0 59.4v299.798h367.2v-350.398zM407.6 3.4v355.798h488.4v-423.2zM407.6 764.6l488.4 67.4v-427.6h-488.4v360.2z" />
<glyph unicode="&#xf17b;" glyph-name="android" horiz-adv-x="1152" d="M841.1 292.14c-26.492 0-48 21.508-48 48s21.508 48 48 48 48-21.508 48-48-21.508-48-48-48zM310.9 292.14c-26.492 0-48 21.508-48 48s21.508 48 48 48 48-21.508 48-48-21.508-48-48-48zM858.3 581.1l95.879 166c2.135 3.182 3.381 7.008 3.381 11.125 0 11.037-8.961 20-20 20-7.867 0-14.656-4.514-17.92-11.125v0l-97.080-168.139c-75.148 33.703-158.439 52.453-246.074 52.453-87.633 0-171.898-18.75-247.046-52.453l-97.080 168.139c-3.264 6.611-10.076 11.164-17.943 11.164-11.039 0-20-8.963-20-20 0-4.117 1.27-7.982 3.404-11.164v0l95.879-166c-164.639-89.539-277.218-256.2-293.7-453.1h1152c-16.48 196.9-129.080 363.56-293.7 453.1z" />
</font>
</defs>
</svg>
